Классический форум-трекер
canvas not supported
Нас вместе: 4 079 134

PBS Nature: Плитвице - край падающих озер / Plitvice - Land of The Falling Lakes (2004) [720p] HDTVRip


 
 
RSS
Начать новую тему   Ответить на тему    Торрент-трекер NNM-Club -> Зарубежные TV-бренды -> PBS
Автор Сообщение
vazquez ®
Стаж: 10 лет
Сообщений: 139
Ratio: 24,423
Раздал: 30,61 TB
Поблагодарили: 9948
100%
ukraine.gif
PBS Nature: Плитвице - край падающих озер / Plitvice - Land of The Falling Lakes (2004) [720p] HDTVRip
Русское название: Плитвице - край падающих озер
Оригинальное название: Plitvice - Land of The Falling Lakes
Режиссер / Телекомпания: Michael Schlamberger
Страна: Австрия
Год выпуска: 2004
Жанр: Документальный, Телепередача

Описание:
Национальный Парк озер в Плитвице, старейший национальный парк в Европе, находится в хорватских Динарских горах, где рысь, черный аист и уральская сова живут по соседству в удивительном мире. Оглушительные водопады, каскадные озера и подземные пещеры...



Продолжительность: 00:54:22

Перевод: Дублированный

Релиз от

Видеокодек: MPEG-4 AVC/H.264
Битрейт видео: ~3452 Кбит/с
Размер кадра: 1280x720
Качество видео: HDTVRip
Аудиокодек: AC3
Битрейт аудио: 192 Кбит/с
Аудио #1: Русский, AC3, 2ch (L,R), 192 кбит/с [Дублированный, Один голос]
Аудио #2: Английский, AC3, 2ch (L,R), 192 кбит/с (Оригинал)
Общее
Уникальный идентификатор : 202125385444159701088968976734159028729 (0x980FEEE87958D866B4F098CE78AAC1F9)
Полное имя : D:\movies\Плитвице - край падающих озер [2004, HDTVRip720p].mkv
Формат : Matroska
Версия формата : Version 2
Размер файла : 1,46 Гбайт
Продолжительность : 54 м.
Общий поток : 3839 Кбит/сек
Название фильма : Плитвице - край падающих озер [2004, HDTVRip/720p]
Дата кодирования : UTC 2011-02-12 10:38:47
Программа кодирования : mkvmerge v4.0.0 ('The Stars were mine') сборка от Jun 6 2010 16:18:42
Библиотека кодирования : libebml v1.0.0 + libmatroska v1.0.0

Видео
Идентификатор : 1
Формат : AVC
Формат/Информация : Advanced Video Codec
Профиль формата : High@L5.1
Параметр CABAC формата : Да
Параметр ReFrames формата : 8 кадров
Режим смешивания : Container profile=Unknown@0.0
Идентификатор кодека : V_MPEG4/ISO/AVC
Продолжительность : 54 м.
Битрейт : 3452 Кбит/сек
Ширина : 1280 пикселей
Высота : 720 пикселей
Соотношение сторон : 16:9
Частота кадров : 29,970 кадров/сек
Цветовое пространство : YUV
Субдискретизация насыщенности : 4:2:0
Битовая глубина : 8 бит
Тип развёртки : Прогрессивная
Бит/(Пиксели*Кадры) : 0.125
Размер потока : 1,28 Гбайт (88%)
Заголовок : Плитвице - край падающих озер [2004, HDTVRip/720p]
Библиотека кодирования : x264 core 56 svn-675C
Настройки программы : cabac=1 / ref=5 / deblock=1:-2:-1 / analyse=0x3:0x113 / me=umh / subme=6 / brdo=1 / mixed_ref=1 / me_range=16 / chroma_me=1 / trellis=1 / 8x8dct=1 / cqm=0 / deadzone=21,11 / chroma_qp_offset=0 / threads=6 / nr=0 / decimate=1 / mbaff=0 / bframes=3 / b_pyramid=1 / b_adapt=1 / b_bias=0 / direct=3 / wpredb=1 / bime=1 / keyint=250 / keyint_min=25 / scenecut=40(pre) / rc=2pass / bitrate=3452 / ratetol=1.0 / rceq='blurCplx^(1-qComp)' / qcomp=0.60 / qpmin=10 / qpmax=51 / qpstep=4 / cplxblur=20.0 / qblur=0.5 / ip_ratio=1.40 / pb_ratio=1.30
Язык : English
Default : Да
Forced : Нет

Аудио #1
Идентификатор : 2
Формат : AC-3
Формат/Информация : Audio Coding 3
Расширение режима : CM (complete main)
Идентификатор кодека : A_AC3
Продолжительность : 54 м.
Вид битрейта : Постоянный
Битрейт : 192 Кбит/сек
Каналы : 2 канала
Расположение каналов : Front: L R
Частота : 48,0 КГц
Битовая глубина : 16 бит
Метод сжатия : С потерями
Размер потока : 74,7 Мбайт (5%)
Заголовок : Одноголосый [AC3 2.0 @ 192kbps]
Язык : Russian
Default : Да
Forced : Нет

Аудио #2
Идентификатор : 3
Формат : AC-3
Формат/Информация : Audio Coding 3
Расширение режима : CM (complete main)
Идентификатор кодека : A_AC3
Продолжительность : 54 м.
Вид битрейта : Постоянный
Битрейт : 192 Кбит/сек
Каналы : 2 канала
Расположение каналов : Front: L R
Частота : 48,0 КГц
Битовая глубина : 16 бит
Метод сжатия : С потерями
Размер потока : 74,7 Мбайт (5%)
Заголовок : Оригинал [AC3 2.0 @ 192kbps]
Язык : English
Default : Нет
Forced : Нет

Скриншоты



Время раздачи: С 8:00 до 23:00
[NNM-Club.ru]_Plitvitse - kray padayushchih ozer [2004, HDTVRip720p].mkv.torrent
 Торрент: Платиновая раздача  Зарегистрирован
 
Скачать


Примагнититься
 Зарегистрирован:   27 Янв 2012 21:16:52
 Размер:   1,46 GB  (
 Рейтинг:   5 (Голосов: 26)
 Поблагодарили:   89
 Проверка:   Оформление проверено модератором 27 Янв 2012 21:26:24
Как cкачать  ·  Как раздать  ·  Правильно оформить  ·  Поднять ратио!  
Загрузка...
Игорь-Вал​ерьевич​
Сталкер, Спонсор, Реставратор Клуба
 
Стаж: 8 лет 6 мес.
Сообщений: 3937
Ratio: 43,249
Поблагодарили: 134951
100%
Спасибо релизеру за отличные, очень нужные релизы!
vazquez ®
Стаж: 10 лет
Сообщений: 139
Ratio: 24,423
Раздал: 30,61 TB
Поблагодарили: 9948
100%
ukraine.gif
Цитата:
Спасибо релизеру за отличные, очень нужные релизы!

Рад стараться :D
glock4562
Стаж: 7 лет 10 мес.
Сообщений: 118
Ratio: 3,89
100%
Спасибо большое за релиз! Я там был когда-то и с удовольствием побываю опять.
EbaJIa
Стаж: 7 лет 10 мес.
Сообщений: 22
Ratio: 7,071
100%
russia.gif
спс за материал просто супер
skorpionN
Ведущий Документалист
Стаж: 12 лет 3 мес.
Сообщений: 9514
Ratio: 2629,145
Раздал: 22,35 TB
Поблагодарили: 362969
100%
Вот и раздел готов
Показать сообщения:   
Начать новую тему   Ответить на тему    Торрент-трекер NNM-Club -> Зарубежные TV-бренды -> PBS Часовой пояс: GMT + 3
Страница 1 из 1