Классический форум-трекер
canvas not supported
Нас вместе: 4 078 917

Уроки рыболовства / How to Fish (1942) DVDRip


 
 
RSS
Начать новую тему   Ответить на тему    Торрент-трекер NNM-Club -> Мультфильмы -> Зарубежные Мультфильмы для детей
Автор Сообщение
lightstarz ®
Стаж: 8 лет 8 мес.
Сообщений: 10
Ratio: 1,949
Поблагодарили: 1127
3.63%
Уроки рыболовства / How to Fish (1942) DVDRip
Русское название: Уроки рыболовства
Оригинальное название: How to Fish
Год выпуска: 1942
Жанр: Детский, Рисованная анимация, Комедия
Перевод: Одноголосый закадровый, профессиональный



Режиссер: Джек Кинни
Персонажи: Гуфи

Описание фильма:
Мультипликационный кинофильм из цикла об увлекательных и неописуемо смешных приключениях Микки Мауса и его друзей: Плуто, Дональда Дака и Гуфи. Прекрасная музыка, непревзойденная анимация, забавные персонажи - обеспечили студии Уолта Диснея любовь и признание всего мира.
Гуфи показывает еще один вид отдыха - рыбалка. Ловля рыбы - занятие не только ответственное, но и радостное.

Продолжительность: 00:07:17
Качество видео: DVDRip

Видеокодек: Xvid
Битрейт видео: ~1908 kb/s
Размер кадра: 720x544
Аудиокодек: АС3, 2.0
Битрейт аудио: 192 kb/s 2 ch
Формат : AVI
Формат/Информация : Audio Video Interleave
Размер файла : 110 Мбайт
Продолжительность : 7 м. 17 с.
Общий поток : 2107 Кбит/сек
Программа кодирования : VirtualDubMod 1.5.4.1 (build 2178/release)
Библиотека кодирования : VirtualDubMod build 2178/release

Видео
Идентификатор : 0
Формат : MPEG-4 Visual
Профиль формата : Advanced Simple@L5
Параметр BVOP формата : 1
Параметр QPel формата : Нет
Параметр GMC формата : Без точки перехода
Параметр матрицы формата : Выборочная
Идентификатор кодека : XVID
Идентификатор кодека/Подсказка : XviD
Продолжительность : 7 м. 17 с.
Битрейт : 1908 Кбит/сек
Ширина : 720 пикселей
Высота : 544 пикселя
Соотношение сторон : 4:3
Частота кадров : 25,000 кадров/сек
Цветовое пространство : YUV
Субдискретизация насыщенности : 4:2:0
Битовая глубина : 8 бит
Тип развёртки : Прогрессивная
Метод сжатия : С потерями
Бит/(Пиксели*Кадры) : 0.195
Размер потока : 99,6 Мбайт (91%)
Библиотека кодирования : XviD 58

Аудио
Идентификатор : 1
Формат : AC-3
Формат/Информация : Audio Coding 3
Расширение режима : CM (complete main)
Идентификатор кодека : 2000
Продолжительность : 7 м. 17 с.
Вид битрейта : Постоянный
Битрейт : 192 Кбит/сек
Каналы : 2 канала
Расположение каналов : Front: L R
Частота : 48,0 КГц
Битовая глубина : 16 бит
Метод сжатия : С потерями
Размер потока : 10,0 Мбайт (9%)
Выравнивание : Разделение по промежуткам
Продолжительность промежутка : 96 мс. (2,40 видеокадра)
Время предзагрузки промежутка : 96 мс.
Скриншоты:


Время раздачи: 24/7
[NNM-Club.ru]_Uroki.rybolovstva.1942.DVDRip.avi.torrent
 Торрент: Золотая раздача  Зарегистрирован
 
Зарегистрируйтесь и скачайте торрент!
17,4 KB

Примагнититься
 Зарегистрирован:   04 Фев 2012 18:04:20
 Размер:   110 MB  (
 Рейтинг:   4,6 (Голосов: 14)
 Поблагодарили:   32
 Проверка:   Оформление проверено модератором 05 Фев 2012 16:22:34
Как cкачать  ·  Как раздать  ·  Правильно оформить  ·  Поднять ратио!  
Загрузка...
Показать сообщения:   
Начать новую тему   Ответить на тему    Торрент-трекер NNM-Club -> Мультфильмы -> Зарубежные Мультфильмы для детей Часовой пояс: GMT + 3
Страница 1 из 1