Классический форум-трекер
canvas not supported
Нас вместе: 4 078 030

Приключения Даши в Заколдованном Лесу / Dora's Enchanted Forest Adventures (2011) SATRip


 
 
RSS
Начать новую тему   Ответить на тему    Торрент-трекер NNM-Club -> Мультфильмы -> Зарубежные Мультфильмы для детей
Автор Сообщение
Rostick ®
Стаж: 10 лет 6 мес.
Сообщений: 14
Ratio: 3,187
Поблагодарили: 179
100%
russia.gif
Приключения Даши в Заколдованном Лесу / Dora's Enchanted Forest Adventures (2011) SATRip
Русское название: Приключения Даши в Заколдованном Лесу
Оригинальное название: Dora's Enchanted Forest Adventures
Год выпуска: 2011
Жанр: Детский

Перевод: Дублированный

Релиз группа: puzkarapuz


Дата мировой премьеры: 13.09.2011

Режиссер: John Madden, George S. Chialtas, Gary Conrad
Персонажи: Даша, Башмачок, Диего

Описание фильма:
Новые приключения Даши, Башмачка, Диего и многих других друзей в Заколдованном Лесу. Эта история разделена на три серии, в которых Даша узнает историю о Короле Единороге, а потом с друзьями помогает спасти Лес от злых Сов.

Продолжительность:
Список серий:
- I: Tale of the Unicorn King (часть 1: Сказка о Короле Единороге) [00:22:57]
- II: The Secret of Atlantis (часть 2: Секрет Атлантиды) [00:22:57]
- III: Dora Saves King Unicornio (часть 3: Даша Спасает Короля Единорога) двойной эпизод [00:44:54]

Качество видео: SATRip

Видеокодек: Xvid
Битрейт видео: 1598 Кбит/сек
Размер кадра: 640х480
Аудиокодек: MP3, 2.0
Битрейт аудио: 128 Кбит/сек
Видео

Идентификатор : 0
Формат : MPEG-4 Visual
Профиль формата : Advanced Simple@L5
Параметр BVOP формата : 2
Параметр QPel формата : Нет
Параметр GMC формата : Без точки перехода
Параметр матрицы формата : Default (H.263)
Режим смешивания : Сжатый битовый поток
Идентификатор кодека : XVID
Идентификатор кодека/Подсказка : XviD
Битрейт : 1598 Кбит/сек
Ширина : 640 пикселей
Высота : 480 пикселей
Соотношение сторон : 4:3
Частота кадров : 25,000 кадров/сек
Цветовое пространство : YUV
Субдискретизация насыщенности : 4:2:0
Битовая глубина : 8 бит
Тип развёртки : Прогрессивная
Метод сжатия : С потерями
Бит/(Пиксели*Кадры) : 0.208
Размер потока : 262 Мбайт (92%)
Библиотека кодирования : XviD 1.2.1 (UTC 2008-12-04)

Аудио

Идентификатор : 1
Формат : MPEG Audio
Версия формата : Version 1
Профиль формата : Layer 3
Режим : Joint stereo
Расширение режима : MS Stereo
Идентификатор кодека : 55
Идентификатор кодека/Подсказка : MP3
Вид битрейта : Постоянный
Битрейт : 128 Кбит/сек
Каналы : 2 канала
Частота : 48,0 КГц
Метод сжатия : С потерями
Размер потока : 21,0 Мбайт (7%)
Выравнивание : Разделение по промежуткам
Продолжительность промежутка : 40 мс. (1,00 видеокадр)
Время предзагрузки промежутка : 500 мс.
Скриншоты:


Время раздачи: c 23:00 до 8:30
[NNM-Club.ru]_Dora's Enchanted Forest Adventure.torrent
 Торрент: Платиновая раздача  Зарегистрирован
 
Скачать


Примагнититься
 Зарегистрирован:   07 Фев 2012 22:55:16
 Размер:   1,1 GB  (
 Рейтинг:   4,8 (Голосов: 30)
 Поблагодарили:   179
 Проверка:   Оформление проверено модератором 08 Фев 2012 19:58:56
Как cкачать  ·  Как раздать  ·  Правильно оформить  ·  Поднять ратио!  
mikrob906
Стаж: 8 лет 9 мес.
Сообщений: 22
Ratio: 5,013
6.83%
Качество ужасное
Rostick ®
Стаж: 10 лет 6 мес.
Сообщений: 14
Ratio: 3,187
Поблагодарили: 179
100%
russia.gif
mikrob906 писал(а): Перейти к сообщению
Качество ужасное

да будет.. не экранка ж =)
tolyasha tsvistun 1980
Стаж: 8 лет 6 мес.
Сообщений: 703
Ratio: 7,984
Раздал: 4,496 TB
Поблагодарили: 8958
100%
ukraine.gif
mikrob906 писал(а): Перейти к сообщению
Качество ужасное

..так написано ж SATRip..,чего ты ждал..
cn_nik
Стаж: 7 лет 7 мес.
Сообщений: 19
Ratio: 24,133
100%
ukraine.gif
спасибо
Показать сообщения:   
Начать новую тему   Ответить на тему    Торрент-трекер NNM-Club -> Мультфильмы -> Зарубежные Мультфильмы для детей Часовой пояс: GMT + 3
Страница 1 из 1