Классический форум-трекер
canvas not supported
Нас вместе: 4 079 573

Заботливые мишки. Путешествие в Шутляндию. / Care Bears: Journey to Joke-a-Lot (2004) DVDRip


 
 
RSS
Начать новую тему   Ответить на тему    Торрент-трекер NNM-Club -> Мультфильмы -> Зарубежные Мультфильмы для детей
Автор Сообщение
kricta ®
 
Стаж: 8 лет 11 мес.
Сообщений: 115
Ratio: 69,837
Поблагодарили: 1823
100%
Откуда: Рязань
russia.gif
Заботливые мишки. Путешествие в Шутляндию. / Care Bears: Journey to Joke-a-Lot (2004) DVDRip
Русское название: Заботливые мишки. Путешествие в Шутляндию.
Оригинальное название: Care Bears: Journey to Joke-a-Lot
Год выпуска: 2004
Жанр: Детский

Перевод: Дублированный


Дата мировой премьеры: 05.10.2004

Режиссер: Майк Фейлловс
Персонажей озвучивали: Джули Лемье, Стиви Вэлланс, Эндрю Сэбистон, Сьюзэн Роман, Сандай Мьюз, Роберт Тинклер, Стефани Бирд

Описание фильма:
В один прекрасный день, когда над шутками Весельчака уже никто не смеется, он покидает свою страну в поисках места, где его чувство юмора будет оценено по достоинству. Дорога приводит его в сказочную страну Шутляндию, где юмор правит всем и Весельчак становится королем! Он восседает на троне, охраняя волшебные сокровища, таящие в себе магическую силу Шутляндии.

Беспокоясь о своем пропавшем друге, Выручайка и Неунывайка вместе с другими Заботливыми мишками отправляются на поиски Весельчака и просят его вернуться домой. Что же он выберет: жизнь в королевских почестях или заботе любящих друзей? Останется ли Весельчак в стране, где все серьезное запрещено, а шутки правят всем, или вернется обратно? Все это вы узнаете, посмотрев великолепную музыкальную историю, наполненную радостью, смехом, любовью и заботой!

Продолжительность: 01:17:49
Качество видео: DVDRip

Видеокодек: Xvid
Битрейт видео: ~2032 Кбит/сек
Размер кадра: 848 х 480
Аудиокодек: AC3, 6 каналов
Битрейт аудио: 448 Кбит/сек
Формат оригинала/Имя : Заботливые мишки
Видео
Идентификатор : 0
Формат : MPEG-4 Visual
Профиль формата : Advanced Simple@L5
Параметр BVOP формата : 2
Параметр QPel формата : Нет
Параметр GMC формата : Без точки перехода
Параметр матрицы формата : Default (H.263)
Режим смешивания : Сжатый битовый поток
Идентификатор кодека : XVID
Идентификатор кодека/Подсказка : XviD
Продолжительность : 1 ч. 17 м.
Битрейт : 2032 Кбит/сек
Ширина : 848 пикс.
Высота : 480 пикс.
Соотношение сторон : 16:9
Частота кадров : 25,000 кадр/сек
Цветовое пространство : YUV
Подвыборка цветности : 4:2:0
Битовая глубина : 8 бит
Тип развёртки : Прогрессивная
Метод сжатия : С потерями
Бит/(Пиксели*Кадры) : 0.200
Размер потока : 1,10 Гбайт (82%)
Библиотека кодирования : XviD 1.2.1 (UTC 2008-12-04)

Аудио
Идентификатор : 1
Формат : AC-3
Формат/Информация : Audio Coding 3
Расширение режима : CM (complete main)
Идентификатор кодека : 2000
Продолжительность : 1 ч. 17 м.
Вид битрейта : Постоянный
Битрейт : 448 Кбит/сек
Каналы : 6 каналов
Расположение каналов : Front: L C R, Side: L R, LFE
Частота : 48,0 КГц
Битовая глубина : 16 бит
Метод сжатия : С потерями
Размер потока : 249 Мбайт (18%)
Выравнивание : Соединение по промежуткам
Продолжительность промежутка : 32 мс. (0,80 видеокадр)
Время предзагрузки промежутка : 32 ms
Скриншоты:




Время раздачи: по будням с 08:00 до 10:00 (остальное по возможности)
Zabotlivyie mishki [nnm-club.ru].avi.torrent
 Торрент: Платиновая раздача  Зарегистрирован
 
Скачать


Примагнититься
 Зарегистрирован:   24 Фев 2012 15:36:23
 Размер:   1,36 GB  (
 Рейтинг:   4,2 (Голосов: 20)
 Поблагодарили:   93
 Проверка:   Оформление проверено модератором 24 Фев 2012 16:52:29
Как cкачать  ·  Как раздать  ·  Правильно оформить  ·  Поднять ратио!  
orbvs
Стаж: 8 лет 9 мес.
Сообщений: 26
Ratio: 70,063
100%
russia.gif
А это не про Россию ?
Показать сообщения:   
Начать новую тему   Ответить на тему    Торрент-трекер NNM-Club -> Мультфильмы -> Зарубежные Мультфильмы для детей Часовой пояс: GMT + 3
Страница 1 из 1