Классический форум-трекер
canvas not supported
Нас вместе: 4 079 075

Подводная Одиссея команды Жака Кусто: Мир без солнца / Jacques Cousteau: World Without Sun / Le monde sans soleil (1964) BDRip [720p]


 
 
RSS
Начать новую тему   Ответить на тему    Торрент-трекер NNM-Club -> Зарубежные TV-бренды -> Одиссея Жака Кусто
Автор Сообщение
Oops_Smile ®
Стаж: 9 лет 6 мес.
Сообщений: 1543
Ratio: 52,827
Раздал: 56,61 TB
Поблагодарили: 46013
100%
Откуда: Симферополь
Подводная Одиссея команды Жака Кусто: Мир без солнца / Jacques Cousteau: World Without Sun / Le monde sans soleil (1964) BDRip [720p]
Русское название: Подводная Одиссея команды Жака Кусто: Мир без солнца
Оригинальное название: Jacques Cousteau: World Without Sun / Le monde sans soleil
Режиссер / Телекомпания: Жак Ив Кусто
Год выпуска: 1964
Жанр: Документальный

Описание:
Могут ли люди жить и работать под водой в течение месяца? Жак Кусто и его команда пытаются дать ответ на этот вопрос. Резиденция и вместе с этим лаборатория «Морская звезда» становится их штаб-квартирой. Здесь аквалангисты могут свободно выходить и снова погружаться в воду, чтобы вести наблюдение и изучать жизнь под водой. Кусто и его команда остаются под водой 27 дней на глубине 300 футов. Фильм представляет собой хронику этой необычной экспедиции.



Продолжительность: 01:33:03

Аудио #1: AC3,2.0, 192 kb/s |Russian|Одноголосый закадровый,Селена Интернешнл
Аудио #2: AC3 2.0, 224.00 kb/s |French|

Видеокодек: MPEG-4 AVC/H.264
Битрейт видео: ~9500
Размер кадра: 956x720
Качество видео: BDRip
Аудиокодек: AC3 2.0
Битрейт аудио: 192 kb/s

Премия «Оскар» за Лучший документальный фильм, 1965г.
Спасибо:
Скриншоты:
Формат : Matroska
Версия формата : Version 2
Размер файла : 6,45 Гбайт
Продолжительность : 1 ч. 33 м.
Общий поток : 9916 Кбит/сек
Название фильма : Le monde sans soleil (1964) - Release for HDCLUB by Skazhutin
Дата кодирования : UTC 2012-03-01 07:47:04
Программа кодирования : mkvmerge v5.3.0 ('I could have danced') built on Feb 9 2012 10:38:07
Библиотека кодирования : libebml v1.2.3 + libmatroska v1.3.0
Attachment : Yes / Yes

Видео
Идентификатор : 1
Формат : AVC
Формат/Информация : Advanced Video Codec
Профиль формата : High@L4.1
Параметр CABAC формата : Да
Параметр ReFrames формата : 11 кадров
Идентификатор кодека : V_MPEG4/ISO/AVC
Продолжительность : 1 ч. 33 м.
Битрейт : 9500 Кбит/сек
Ширина : 956 пикселей
Высота : 720 пикселей
Соотношение сторон : 4:3
Частота кадров : 24,000 кадра/сек
Цветовое пространство : YUV
Субдискретизация насыщенности : 4:2:0
Битовая глубина : 8 бит
Тип развёртки : Прогрессивная
Бит/(Пиксели*Кадры) : 0.575
Размер потока : 6,05 Гбайт (94%)
Заголовок : Release for HDCLUB
Библиотека кодирования : x264 core 120 r2146kMod bcd41db
Настройки программы : cabac=1 / ref=11 / deblock=1:-3:-3 / analyse=0x3:0x113 / me=umh / subme=11 / psy=1 / fade_compensate=0.00 / psy_rd=1.15:0.05 / mixed_ref=1 / me_range=48 / chroma_me=1 / trellis=2 / 8x8dct=1 / cqm=0 / deadzone=21,11 / fast_pskip=0 / chroma_qp_offset=-3 / threads=12 / sliced_threads=0 / nr=0 / decimate=0 / interlaced=0 / bluray_compat=0 / constrained_intra=0 / bframes=11 / b_pyramid=2 / b_adapt=2 / b_bias=0 / direct=3 / weightb=1 / open_gop=0 / weightp=2 / keyint=250 / keyint_min=23 / scenecut=40 / intra_refresh=0 / rc_lookahead=40 / rc=2pass / mbtree=0 / bitrate=9500 / ratetol=1.0 / qcomp=0.65 / qpmin=0 / qpmax=69 / qpstep=4 / cplxblur=20.0 / qblur=0.5 / vbv_maxrate=50000 / vbv_bufsize=62500 / nal_hrd=none / ip_ratio=1.30 / pb_ratio=1.20 / aq=3:0.85
Язык : French
Default : Да
Forced : Нет
Коэффициенты матрицы : BT.709-5, BT.1361, IEC 61966-2-4 709, SMPTE RP177

Аудио #1
Идентификатор : 2
Формат : AC-3
Формат/Информация : Audio Coding 3
Расширение режима : CM (complete main)
Идентификатор кодека : A_AC3
Продолжительность : 1 ч. 33 м.
Вид битрейта : Постоянный
Битрейт : 192 Кбит/сек
Каналы : 2 канала
Расположение каналов : Front: L R
Частота : 48,0 КГц
Битовая глубина : 16 бит
Метод сжатия : С потерями
Размер потока : 128 Мбайт (2%)
Заголовок : AC3 2.0 @ 192 kbps - Одноголосный, Селена Интернешнл
Язык : Russian
Default : Да
Forced : Нет

Аудио #2
Идентификатор : 3
Формат : AC-3
Формат/Информация : Audio Coding 3
Расширение режима : CM (complete main)
Идентификатор кодека : A_AC3
Продолжительность : 1 ч. 33 м.
Вид битрейта : Постоянный
Битрейт : 224 Кбит/сек
Каналы : 2 канала
Расположение каналов : Front: L R
Частота : 48,0 КГц
Битовая глубина : 16 бит
Метод сжатия : С потерями
Размер потока : 149 Мбайт (2%)
Заголовок : AC3 2.0 @ 224 kbps
Язык : French
Default : Нет
Forced : Нет

Меню
00:00:00.000 : en:Chapter 1
00:09:03.875 : en:Chapter 2
00:17:06.500 : en:Chapter 3
00:23:15.958 : en:Chapter 4
00:37:26.666 : en:Chapter 5
00:45:15.208 : en:Chapter 6
00:54:40.125 : en:Chapter 7
01:03:24.291 : en:Chapter 8
01:11:03.791 : en:Chapter 9
01:23:40.791 : en:Chapter 10


BDRemux [1080p]: https://nnmclub.to/forum/viewtopic.php?t=447427
DVD5: https://nnmclub.to/forum/viewtopic.php?t=310472

Время раздачи: 24/7 - круглосуточно
[NNM-Club.ru]_Le.monde.sans.soleil.1964.720p..mkv.torrent
 Торрент: Платиновая раздача  Зарегистрирован
 
Скачать


Примагнититься
 Зарегистрирован:   01 Мар 2012 20:23:02
 Размер:   6,45 GB  (
 Рейтинг:   4,8 (Голосов: 24)
 Поблагодарили:   78
 Проверка:   Оформление проверено модератором 02 Мар 2012 10:00:37
Как cкачать  ·  Как раздать  ·  Правильно оформить  ·  Поднять ратио!  
Показать сообщения:   
Начать новую тему   Ответить на тему    Торрент-трекер NNM-Club -> Зарубежные TV-бренды -> Одиссея Жака Кусто Часовой пояс: GMT + 3
Страница 1 из 1