Классический форум-трекер
canvas not supported
Нас вместе: 4 077 964

Анимированные истории Ветхого Завета / Animated Stories the Bible Old (12 серий из12) (2005) DVDRip


 
 
RSS
Начать новую тему   Эта тема закрыта, вы не можете писать ответы и редактировать сообщения.    Торрент-трекер NNM-Club -> Мультфильмы -> Зарубежные Мультфильмы для детей
Автор Сообщение
эксклюзив ®
Стаж: 8 лет 6 мес.
Сообщений: 1169
Ratio: 159,795
Поблагодарили: 75051
100%
Анимированные истории Ветхого Завета / Animated Stories the Bible Old (12 серий из12) (2005) DVDRip
Русское название: Анимированные истории Ветхого Завета
Оригинальное название: Animated Stories the Bible Old
Год выпуска: 2005
Жанр: Детский

Описание фильма:
Мультфильм создан на основе историй взятых из Ветхого Завета


Продолжительность: 12 ~ 00:25:00
Качество видео: DVDRip

Видеокодек: Xvid
Битрейт видео: ~825 kb/s
Размер кадра: 496x368, 512x384, 528x400, 544x416, 640x480
Аудиокодек: MP3
Битрейт аудио: 128 kb/s, 2 ch
Часть 1: Авраам и Исаак. У Авраама и Сары долго не было детей. Но Бог обещал подарить им ребенка, и вот, на старости лет у них родился сын Исаак. Они очень дорожили своим сыном. Так сильно, что однажды Бог решил узнать, не ставят ли они любовь к сыну превыше любви к Нему. И Бог приказал Аврааму принести Исаака в жертву. чтобы проверить что Настало время самого сложного решения в жизни Авраама. Эта история - один из самых великих примеров послушания, преданности и веры в Бога во всей Библии. Авраам проходит испытание, и Бог обещает ему. что он станет отцом иногих наций.
Часть 2: Самуил, маленький пророк. Анна молится Богу и дает Ему клятву, что посвятит Ему ребенка, если Он дарует Его ей. И Бог подарил Анне сына, которого она назвала Самуил, что означает «испрошенный у Бога». Спустя три года Анна отдает сына на воспитание пророку Илие. Мальчик помогает ему в храме, узнает, что молитва - это разговор с Богом, а потом и сам слышит голос Бога Впоследствии Самуил становится великим пророком. Эта история рассказывает нам о нескольких интересных эпизодах из жизни Самуила.
Часть 3: Иосиф в Египте. Иосиф, еврейский мальчик, был продан в рабство его завистливыми братьями и увезен в Египет. Он не забыл уроков о Боге, которым учил его отец Иаков. Запертый в тюрьме за преступление которого он не совершал, Иосиф толкует сновидения своих сокамерников и зарабатывает уважение всех, кого встречает. Иосифа призывают истолковать сон Фараона. Бог и здесь помогает ему. Иосифа не только отпускают из тюрьмы, но и жалуют высокую должность при дворе Фараона.
Часть 4: Пророк Илия. Илия жил в то время, когда люди отвернулись от истинного Бога и стали поклоняться разным богам. Правитель Израиля и его жена поклонялись Ваалу. Тогда Бог решил через Илию показать людям, что только он есть истинный Бог. Илия предложил жрецам Ваала устроить состязание, чтобы понять, какому Богу должны поклоняться Израилитяне. Илия и жрецы стали молиться каждый своему Богу с просьбой свершить чудо. И Бог свершил чудеса по просьбе Илии, и доказал, что Он и есть истинный Бог Израильтян.
Часть 5: Даниил. Войско Вавилона захватило Иерусалим и увело в плен множество отроков, чтобы сделать из них рабов. Среди них были Даниил и три его друга. Все они получили новые вавилонские имена. Даниил стал Валтасаром, а его друзья - Седрахом, Мисахом и Авденаго. Бог помог четверым друзьям хорошо учиться и стать очень мудрыми. Поэтому царь Вавилона Навуходоноссор выбрал их себе в советники. Его внук Дарий поставил Даниила своим Главным Советником, за что другие советники сильно обозлились на Даниила и подстроили так, чтобы он был брошен в пещеру со львами. Но Даниил молился Богу, и Бог помог ему спастись.
Часть 6: Царица Есфирь. Что бы Вы сделали, если бы Ваш дядя попросил Вас рисковать своей собственной жизнью, чтобы спасти соотечественников? Это была очень сложная проблема для молодой царицы Есфирь. Разрешив ее, она стала известна как одна из решительнейших и смелейших женщин. Мудрость и отвага помогают молодой женщине предотвратить гибель своего народа и победить злоумышленника.
Часть 7: Моисей. Когда фараон Египта Рамзес приказал убить всех еврейских детей, уцелел лишь младенец Моисей. Мать положила его в корзину, которую пустила плыть по Нилу. Дочь фараона нашла младенца, усыновила его, и он воспитывался вместе с наследником престола Мернефтой. Господь призвал Моисея вывести свой народ из египетского рабства в Землю обетованную.
Часть 8: Елисей. Огненная колесница, запряженная конями спускается на землю, чтобы возвести великого пророка Илью на небеса. Плащ Ильи остается у его воспитанника,
Елисея. Бог наделяет Елисея пророческим даром, как и Илью. С тех пор проповедует Елисей волю Божью в земле Израильской, помогает людям советом, лечит от болезней и даже спасает человеческие жизни.
Часть 9: Руфь. Руфь - одна из древнейших историй любви, когда-либо рассказанных. Написанная около 3 тысяч лет назад, она является одной из величайших Библейских историй, имеющих счастливую развязку. Она повествует о том, как преданность Руфи своей свекрови, несмотря на то, что они принадлежали к разным народностям и вероисповеданиям, была вознаграждена Богом, заботящемся о бедных и обездоленных. Руфь - ставшая прабабушкой Царя Давида, один из наиболее прекрасных и обаятельных женских образов в Библии.
Часть 10: Давид и Голиаф. Это одна из ивестнейших Библейских историй, рассказывающая о невероятной отваге, смелости и вере. Давид, юный пастух, сочиняющий стихи и играющий на гуслях,казался самым неподходящим на роль спасителя своей страны. Но когда Галиаф, человек огромного проста, стал угрожать Египту и поносить Бога, Давид вступил с ним в схватку и победил великана.
Часть 11: Возвращение Иосифа. Засуха лишила Землю Ханаанскую урожая. Иаков знал от заезжих купцов, что в Египте есть хлеб. Чтобы его семья не умерла с голоду, он отправляет десять своих сыновей к фараону. Но они даже не могли себе представить, что найдут в далекой стране не только еду, но и брата! Брата, которого много лет назад они продали в рабство, отправив таким образом его на верную смерть. Это продолжение истории под названием "Иосиф в Египте". Она повествует о заботе и любви Бога к детям своим.
Часть 12: Соломон. Это было первое серьезное решение в жизни юного царя. Подданыые внимательно следили за своим молодым правителем, гадая, столь же он мудр, как и его отец? Дилемма была сложной, и суд, затаив дыхание, ожидал решения царя. От его решения зависела человеческая жизнь. Что же он решит?
Эта эмоциональная история приглашает зрителей в зал справедливейшего человека, Царя Соломона, самого мудрого из всех когда-либо живших на Земле.
Общее
Полное имя : G:\Мультфильмы\Анимированные истории Ветхого Завета Animated Stories the Bible Old 2005 DVDRip\Анимированные истории Ветхого Завета (серия 1).avi
Формат : AVI
Формат/Информация : Audio Video Interleave
Размер файла : 175 Мбайт
Продолжительность : 25 м.
Общий поток : 963 Кбит/сек

Видео
Идентификатор : 0
Формат : MPEG-4 Visual
Профиль формата : Advanced Simple@L5
Параметр BVOP формата : 2
Параметр QPel формата : Нет
Параметр GMC формата : Без точки перехода
Параметр матрицы формата : Default (H.263)
Режим смешивания : Сжатый битовый поток
Идентификатор кодека : XVID
Идентификатор кодека/Подсказка : XviD
Продолжительность : 25 м.
Битрейт : 825 Кбит/сек
Ширина : 640 пикс.
Высота : 480 пикс.
Соотношение сторон : 4:3
Частота кадров : 25,000 кадр/сек
Цветовое пространство : YUV
Подвыборка цветности : 4:2:0
Битовая глубина : 8 бит
Тип развёртки : Прогрессивная
Метод сжатия : С потерями
Бит/(Пиксели*Кадры) : 0.107
Размер потока : 150 Мбайт (86%)
Библиотека кодирования : XviD 1.1.2 (UTC 2006-11-01)

Аудио
Идентификатор : 1
Формат : MPEG Audio
Версия формата : Version 1
Профиль формата : Layer 3
Идентификатор кодека : 55
Идентификатор кодека/Подсказка : MP3
Продолжительность : 25 м.
Вид битрейта : Постоянный
Битрейт : 128 Кбит/сек
Канал(ы) : 2 канала(ов)
Частота : 44,1 КГц
Метод сжатия : С потерями
Размер потока : 23,3 Мбайт (13%)
Выравнивание : Разделение по промежуткам
Продолжительность промежутка : 40 мс. (1,00 видеокадр)

Общее
Полное имя : G:\Мультфильмы\Анимированные истории Ветхого Завета Animated Stories the Bible Old 2005 DVDRip\Анимированные истории Ветхого Завета (серия 10).avi
Формат : AVI
Формат/Информация : Audio Video Interleave
Размер файла : 161 Мбайт
Продолжительность : 24 м.
Общий поток : 920 Кбит/сек

Видео
Идентификатор : 0
Формат : MPEG-4 Visual
Профиль формата : Advanced Simple@L5
Параметр BVOP формата : 2
Параметр QPel формата : Нет
Параметр GMC формата : Без точки перехода
Параметр матрицы формата : Default (H.263)
Режим смешивания : Сжатый битовый поток
Идентификатор кодека : XVID
Идентификатор кодека/Подсказка : XviD
Продолжительность : 24 м.
Битрейт : 782 Кбит/сек
Ширина : 640 пикс.
Высота : 480 пикс.
Соотношение сторон : 4:3
Частота кадров : 25,000 кадр/сек
Цветовое пространство : YUV
Подвыборка цветности : 4:2:0
Битовая глубина : 8 бит
Тип развёртки : Прогрессивная
Метод сжатия : С потерями
Бит/(Пиксели*Кадры) : 0.102
Размер потока : 137 Мбайт (85%)
Библиотека кодирования : XviD 1.1.2 (UTC 2006-11-01)

Аудио
Идентификатор : 1
Формат : MPEG Audio
Версия формата : Version 1
Профиль формата : Layer 3
Идентификатор кодека : 55
Идентификатор кодека/Подсказка : MP3
Продолжительность : 24 м.
Вид битрейта : Постоянный
Битрейт : 128 Кбит/сек
Канал(ы) : 2 канала(ов)
Частота : 44,1 КГц
Метод сжатия : С потерями
Размер потока : 22,4 Мбайт (14%)
Выравнивание : Разделение по промежуткам
Продолжительность промежутка : 40 мс. (1,00 видеокадр)

Общее
Полное имя : G:\Мультфильмы\Анимированные истории Ветхого Завета Animated Stories the Bible Old 2005 DVDRip\Анимированные истории Ветхого Завета (серия 11).avi
Формат : AVI
Формат/Информация : Audio Video Interleave
Размер файла : 134 Мбайт
Продолжительность : 26 м.
Общий поток : 710 Кбит/сек

Видео
Идентификатор : 0
Формат : MPEG-4 Visual
Профиль формата : Advanced Simple@L5
Параметр BVOP формата : 2
Параметр QPel формата : Нет
Параметр GMC формата : Без точки перехода
Параметр матрицы формата : Default (H.263)
Режим смешивания : Сжатый битовый поток
Идентификатор кодека : XVID
Идентификатор кодека/Подсказка : XviD
Продолжительность : 26 м.
Битрейт : 572 Кбит/сек
Ширина : 496 пикс.
Высота : 368 пикс.
Соотношение сторон : 4:3
Частота кадров : 25,000 кадр/сек
Цветовое пространство : YUV
Подвыборка цветности : 4:2:0
Битовая глубина : 8 бит
Тип развёртки : Прогрессивная
Метод сжатия : С потерями
Бит/(Пиксели*Кадры) : 0.125
Размер потока : 108 Мбайт (81%)
Библиотека кодирования : XviD 1.1.2 (UTC 2006-11-01)

Аудио
Идентификатор : 1
Формат : MPEG Audio
Версия формата : Version 1
Профиль формата : Layer 3
Идентификатор кодека : 55
Идентификатор кодека/Подсказка : MP3
Продолжительность : 26 м.
Вид битрейта : Постоянный
Битрейт : 128 Кбит/сек
Канал(ы) : 2 канала(ов)
Частота : 44,1 КГц
Метод сжатия : С потерями
Размер потока : 24,2 Мбайт (18%)
Выравнивание : Разделение по промежуткам
Продолжительность промежутка : 40 мс. (1,00 видеокадр)

Общее
Полное имя : G:\Мультфильмы\Анимированные истории Ветхого Завета Animated Stories the Bible Old 2005 DVDRip\Анимированные истории Ветхого Завета (серия 12).avi
Формат : AVI
Формат/Информация : Audio Video Interleave
Размер файла : 124 Мбайт
Продолжительность : 25 м.
Общий поток : 675 Кбит/сек

Видео
Идентификатор : 0
Формат : MPEG-4 Visual
Профиль формата : Advanced Simple@L5
Параметр BVOP формата : 2
Параметр QPel формата : Нет
Параметр GMC формата : Без точки перехода
Параметр матрицы формата : Default (H.263)
Режим смешивания : Сжатый битовый поток
Идентификатор кодека : XVID
Идентификатор кодека/Подсказка : XviD
Продолжительность : 25 м.
Битрейт : 537 Кбит/сек
Ширина : 512 пикс.
Высота : 384 пикс.
Соотношение сторон : 4:3
Частота кадров : 25,000 кадр/сек
Цветовое пространство : YUV
Подвыборка цветности : 4:2:0
Битовая глубина : 8 бит
Тип развёртки : Прогрессивная
Метод сжатия : С потерями
Бит/(Пиксели*Кадры) : 0.109
Размер потока : 98,3 Мбайт (80%)
Библиотека кодирования : XviD 1.1.2 (UTC 2006-11-01)

Аудио
Идентификатор : 1
Формат : MPEG Audio
Версия формата : Version 1
Профиль формата : Layer 3
Идентификатор кодека : 55
Идентификатор кодека/Подсказка : MP3
Продолжительность : 25 м.
Вид битрейта : Постоянный
Битрейт : 128 Кбит/сек
Канал(ы) : 2 канала(ов)
Частота : 44,1 КГц
Метод сжатия : С потерями
Размер потока : 23,4 Мбайт (19%)
Выравнивание : Разделение по промежуткам
Продолжительность промежутка : 40 мс. (1,00 видеокадр)

Общее
Полное имя : G:\Мультфильмы\Анимированные истории Ветхого Завета Animated Stories the Bible Old 2005 DVDRip\Анимированные истории Ветхого Завета (серия 2).avi
Формат : AVI
Формат/Информация : Audio Video Interleave
Размер файла : 139 Мбайт
Продолжительность : 25 м.
Общий поток : 765 Кбит/сек

Видео
Идентификатор : 0
Формат : MPEG-4 Visual
Профиль формата : Advanced Simple@L5
Параметр BVOP формата : 2
Параметр QPel формата : Нет
Параметр GMC формата : Без точки перехода
Параметр матрицы формата : Default (H.263)
Режим смешивания : Сжатый битовый поток
Идентификатор кодека : XVID
Идентификатор кодека/Подсказка : XviD
Продолжительность : 25 м.
Битрейт : 627 Кбит/сек
Ширина : 640 пикс.
Высота : 480 пикс.
Соотношение сторон : 4:3
Частота кадров : 25,000 кадр/сек
Цветовое пространство : YUV
Подвыборка цветности : 4:2:0
Битовая глубина : 8 бит
Тип развёртки : Прогрессивная
Метод сжатия : С потерями
Бит/(Пиксели*Кадры) : 0.082
Размер потока : 114 Мбайт (82%)
Библиотека кодирования : XviD 1.1.2 (UTC 2006-11-01)

Аудио
Идентификатор : 1
Формат : MPEG Audio
Версия формата : Version 1
Профиль формата : Layer 3
Идентификатор кодека : 55
Идентификатор кодека/Подсказка : MP3
Продолжительность : 25 м.
Вид битрейта : Постоянный
Битрейт : 128 Кбит/сек
Канал(ы) : 2 канала(ов)
Частота : 44,1 КГц
Метод сжатия : С потерями
Размер потока : 23,3 Мбайт (17%)
Выравнивание : Разделение по промежуткам
Продолжительность промежутка : 40 мс. (1,00 видеокадр)

Общее
Полное имя : G:\Мультфильмы\Анимированные истории Ветхого Завета Animated Stories the Bible Old 2005 DVDRip\Анимированные истории Ветхого Завета (серия 3).avi
Формат : AVI
Формат/Информация : Audio Video Interleave
Размер файла : 164 Мбайт
Продолжительность : 24 м.
Общий поток : 954 Кбит/сек

Видео
Идентификатор : 0
Формат : MPEG-4 Visual
Профиль формата : Advanced Simple@L5
Параметр BVOP формата : 2
Параметр QPel формата : Нет
Параметр GMC формата : Без точки перехода
Параметр матрицы формата : Default (H.263)
Режим смешивания : Сжатый битовый поток
Идентификатор кодека : XVID
Идентификатор кодека/Подсказка : XviD
Продолжительность : 24 м.
Битрейт : 817 Кбит/сек
Ширина : 640 пикс.
Высота : 480 пикс.
Соотношение сторон : 4:3
Частота кадров : 25,000 кадр/сек
Цветовое пространство : YUV
Подвыборка цветности : 4:2:0
Битовая глубина : 8 бит
Тип развёртки : Прогрессивная
Метод сжатия : С потерями
Бит/(Пиксели*Кадры) : 0.106
Размер потока : 140 Мбайт (86%)
Библиотека кодирования : XviD 1.1.2 (UTC 2006-11-01)

Аудио
Идентификатор : 1
Формат : MPEG Audio
Версия формата : Version 1
Профиль формата : Layer 3
Идентификатор кодека : 55
Идентификатор кодека/Подсказка : MP3
Продолжительность : 24 м.
Вид битрейта : Постоянный
Битрейт : 128 Кбит/сек
Канал(ы) : 2 канала(ов)
Частота : 44,1 КГц
Метод сжатия : С потерями
Размер потока : 22,0 Мбайт (13%)
Выравнивание : Разделение по промежуткам
Продолжительность промежутка : 40 мс. (1,00 видеокадр)

Общее
Полное имя : G:\Мультфильмы\Анимированные истории Ветхого Завета Animated Stories the Bible Old 2005 DVDRip\Анимированные истории Ветхого Завета (серия 4).avi
Формат : AVI
Формат/Информация : Audio Video Interleave
Размер файла : 161 Мбайт
Продолжительность : 26 м.
Общий поток : 846 Кбит/сек

Видео
Идентификатор : 0
Формат : MPEG-4 Visual
Профиль формата : Advanced Simple@L5
Параметр BVOP формата : 2
Параметр QPel формата : Нет
Параметр GMC формата : Без точки перехода
Параметр матрицы формата : Default (H.263)
Режим смешивания : Сжатый битовый поток
Идентификатор кодека : XVID
Идентификатор кодека/Подсказка : XviD
Продолжительность : 26 м.
Битрейт : 709 Кбит/сек
Ширина : 640 пикс.
Высота : 480 пикс.
Соотношение сторон : 4:3
Частота кадров : 25,000 кадр/сек
Цветовое пространство : YUV
Подвыборка цветности : 4:2:0
Битовая глубина : 8 бит
Тип развёртки : Прогрессивная
Метод сжатия : С потерями
Бит/(Пиксели*Кадры) : 0.092
Размер потока : 135 Мбайт (84%)
Библиотека кодирования : XviD 1.1.2 (UTC 2006-11-01)

Аудио
Идентификатор : 1
Формат : MPEG Audio
Версия формата : Version 1
Профиль формата : Layer 3
Идентификатор кодека : 55
Идентификатор кодека/Подсказка : MP3
Продолжительность : 26 м.
Вид битрейта : Постоянный
Битрейт : 128 Кбит/сек
Канал(ы) : 2 канала(ов)
Частота : 44,1 КГц
Метод сжатия : С потерями
Размер потока : 24,4 Мбайт (15%)
Выравнивание : Разделение по промежуткам
Продолжительность промежутка : 40 мс. (1,00 видеокадр)

Общее
Полное имя : G:\Мультфильмы\Анимированные истории Ветхого Завета Animated Stories the Bible Old 2005 DVDRip\Анимированные истории Ветхого Завета (серия 5).avi
Формат : AVI
Формат/Информация : Audio Video Interleave
Размер файла : 122 Мбайт
Продолжительность : 26 м.
Общий поток : 643 Кбит/сек

Видео
Идентификатор : 0
Формат : MPEG-4 Visual
Профиль формата : Advanced Simple@L5
Параметр BVOP формата : 2
Параметр QPel формата : Нет
Параметр GMC формата : Без точки перехода
Параметр матрицы формата : Default (H.263)
Режим смешивания : Сжатый битовый поток
Идентификатор кодека : XVID
Идентификатор кодека/Подсказка : XviD
Продолжительность : 26 м.
Битрейт : 506 Кбит/сек
Ширина : 544 пикс.
Высота : 416 пикс.
Соотношение сторон : 4:3
Частота кадров : 25,000 кадр/сек
Цветовое пространство : YUV
Подвыборка цветности : 4:2:0
Битовая глубина : 8 бит
Тип развёртки : Прогрессивная
Метод сжатия : С потерями
Бит/(Пиксели*Кадры) : 0.089
Размер потока : 96,2 Мбайт (79%)
Библиотека кодирования : XviD 1.1.2 (UTC 2006-11-01)

Аудио
Идентификатор : 1
Формат : MPEG Audio
Версия формата : Version 1
Профиль формата : Layer 3
Идентификатор кодека : 55
Идентификатор кодека/Подсказка : MP3
Продолжительность : 26 м.
Вид битрейта : Постоянный
Битрейт : 128 Кбит/сек
Канал(ы) : 2 канала(ов)
Частота : 44,1 КГц
Метод сжатия : С потерями
Размер потока : 24,3 Мбайт (20%)
Выравнивание : Разделение по промежуткам
Продолжительность промежутка : 40 мс. (1,00 видеокадр)

Общее
Полное имя : G:\Мультфильмы\Анимированные истории Ветхого Завета Animated Stories the Bible Old 2005 DVDRip\Анимированные истории Ветхого Завета (серия 6).avi
Формат : AVI
Формат/Информация : Audio Video Interleave
Размер файла : 114 Мбайт
Продолжительность : 24 м.
Общий поток : 648 Кбит/сек

Видео
Идентификатор : 0
Формат : MPEG-4 Visual
Профиль формата : Advanced Simple@L5
Параметр BVOP формата : 2
Параметр QPel формата : Нет
Параметр GMC формата : Без точки перехода
Параметр матрицы формата : Default (H.263)
Режим смешивания : Сжатый битовый поток
Идентификатор кодека : XVID
Идентификатор кодека/Подсказка : XviD
Продолжительность : 24 м.
Битрейт : 510 Кбит/сек
Ширина : 528 пикс.
Высота : 400 пикс.
Соотношение сторон : 4:3
Частота кадров : 25,000 кадр/сек
Цветовое пространство : YUV
Подвыборка цветности : 4:2:0
Битовая глубина : 8 бит
Тип развёртки : Прогрессивная
Метод сжатия : С потерями
Бит/(Пиксели*Кадры) : 0.097
Размер потока : 89,6 Мбайт (79%)
Библиотека кодирования : XviD 1.1.2 (UTC 2006-11-01)

Аудио
Идентификатор : 1
Формат : MPEG Audio
Версия формата : Version 1
Профиль формата : Layer 3
Идентификатор кодека : 55
Идентификатор кодека/Подсказка : MP3
Продолжительность : 24 м.
Вид битрейта : Постоянный
Битрейт : 128 Кбит/сек
Канал(ы) : 2 канала(ов)
Частота : 44,1 КГц
Метод сжатия : С потерями
Размер потока : 22,5 Мбайт (20%)
Выравнивание : Разделение по промежуткам
Продолжительность промежутка : 40 мс. (1,00 видеокадр)

Общее
Полное имя : G:\Мультфильмы\Анимированные истории Ветхого Завета Animated Stories the Bible Old 2005 DVDRip\Анимированные истории Ветхого Завета (серия 7).avi
Формат : AVI
Формат/Информация : Audio Video Interleave
Размер файла : 144 Мбайт
Продолжительность : 22 м.
Общий поток : 883 Кбит/сек

Видео
Идентификатор : 0
Формат : MPEG-4 Visual
Профиль формата : Advanced Simple@L5
Параметр BVOP формата : 2
Параметр QPel формата : Нет
Параметр GMC формата : Без точки перехода
Параметр матрицы формата : Default (H.263)
Режим смешивания : Сжатый битовый поток
Идентификатор кодека : XVID
Идентификатор кодека/Подсказка : XviD
Продолжительность : 22 м.
Битрейт : 745 Кбит/сек
Ширина : 640 пикс.
Высота : 480 пикс.
Соотношение сторон : 4:3
Частота кадров : 25,000 кадр/сек
Цветовое пространство : YUV
Подвыборка цветности : 4:2:0
Битовая глубина : 8 бит
Тип развёртки : Прогрессивная
Метод сжатия : С потерями
Бит/(Пиксели*Кадры) : 0.097
Размер потока : 122 Мбайт (84%)
Библиотека кодирования : XviD 1.1.2 (UTC 2006-11-01)

Аудио
Идентификатор : 1
Формат : MPEG Audio
Версия формата : Version 1
Профиль формата : Layer 3
Идентификатор кодека : 55
Идентификатор кодека/Подсказка : MP3
Продолжительность : 22 м.
Вид битрейта : Постоянный
Битрейт : 128 Кбит/сек
Канал(ы) : 2 канала(ов)
Частота : 44,1 КГц
Метод сжатия : С потерями
Размер потока : 21,0 Мбайт (15%)
Выравнивание : Разделение по промежуткам
Продолжительность промежутка : 40 мс. (1,00 видеокадр)

Общее
Полное имя : G:\Мультфильмы\Анимированные истории Ветхого Завета Animated Stories the Bible Old 2005 DVDRip\Анимированные истории Ветхого Завета (серия 8).avi
Формат : AVI
Формат/Информация : Audio Video Interleave
Размер файла : 151 Мбайт
Продолжительность : 26 м.
Общий поток : 806 Кбит/сек

Видео
Идентификатор : 0
Формат : MPEG-4 Visual
Профиль формата : Advanced Simple@L5
Параметр BVOP формата : 2
Параметр QPel формата : Нет
Параметр GMC формата : Без точки перехода
Параметр матрицы формата : Default (H.263)
Режим смешивания : Сжатый битовый поток
Идентификатор кодека : XVID
Идентификатор кодека/Подсказка : XviD
Продолжительность : 26 м.
Битрейт : 668 Кбит/сек
Ширина : 640 пикс.
Высота : 480 пикс.
Соотношение сторон : 4:3
Частота кадров : 25,000 кадр/сек
Цветовое пространство : YUV
Подвыборка цветности : 4:2:0
Битовая глубина : 8 бит
Тип развёртки : Прогрессивная
Метод сжатия : С потерями
Бит/(Пиксели*Кадры) : 0.087
Размер потока : 125 Мбайт (83%)
Библиотека кодирования : XviD 1.1.2 (UTC 2006-11-01)

Аудио
Идентификатор : 1
Формат : MPEG Audio
Версия формата : Version 1
Профиль формата : Layer 3
Идентификатор кодека : 55
Идентификатор кодека/Подсказка : MP3
Продолжительность : 26 м.
Вид битрейта : Постоянный
Битрейт : 128 Кбит/сек
Канал(ы) : 2 канала(ов)
Частота : 44,1 КГц
Метод сжатия : С потерями
Размер потока : 23,9 Мбайт (16%)
Выравнивание : Разделение по промежуткам
Продолжительность промежутка : 40 мс. (1,00 видеокадр)

Общее
Полное имя : G:\Мультфильмы\Анимированные истории Ветхого Завета Animated Stories the Bible Old 2005 DVDRip\Анимированные истории Ветхого Завета (серия 9).avi
Формат : AVI
Формат/Информация : Audio Video Interleave
Размер файла : 164 Мбайт
Продолжительность : 25 м.
Общий поток : 885 Кбит/сек

Видео
Идентификатор : 0
Формат : MPEG-4 Visual
Профиль формата : Advanced Simple@L5
Параметр BVOP формата : 2
Параметр QPel формата : Нет
Параметр GMC формата : Без точки перехода
Параметр матрицы формата : Default (H.263)
Режим смешивания : Сжатый битовый поток
Идентификатор кодека : XVID
Идентификатор кодека/Подсказка : XviD
Продолжительность : 25 м.
Битрейт : 747 Кбит/сек
Ширина : 640 пикс.
Высота : 480 пикс.
Соотношение сторон : 4:3
Частота кадров : 25,000 кадр/сек
Цветовое пространство : YUV
Подвыборка цветности : 4:2:0
Битовая глубина : 8 бит
Тип развёртки : Прогрессивная
Метод сжатия : С потерями
Бит/(Пиксели*Кадры) : 0.097
Размер потока : 138 Мбайт (84%)
Библиотека кодирования : XviD 1.1.2 (UTC 2006-11-01)

Аудио
Идентификатор : 1
Формат : MPEG Audio
Версия формата : Version 1
Профиль формата : Layer 3
Идентификатор кодека : 55
Идентификатор кодека/Подсказка : MP3
Продолжительность : 25 м.
Вид битрейта : Постоянный
Битрейт : 128 Кбит/сек
Канал(ы) : 2 канала(ов)
Частота : 44,1 КГц
Метод сжатия : С потерями
Размер потока : 23,7 Мбайт (14%)
Выравнивание : Разделение по промежуткам
Продолжительность промежутка : 40 мс. (1,00 видеокадр)
Скриншоты:


[NNM-Club.ru]_Animirovannyie istorii Vethogo Zaveta Animated Stories the Bible Old 2005 DVDRip.torrent
 Торрент: Платиновая раздача  Зарегистрирован
 
Скачать


Примагнититься
 Зарегистрирован:   04 Мар 2012 17:37:27
 Размер:   1,71 GB  (
 Рейтинг:   4,9 (Голосов: 25)
 Поблагодарили:   94
 Проверка:   Оформление проверено модератором 04 Мар 2012 19:49:57
Как cкачать  ·  Как раздать  ·  Правильно оформить  ·  Поднять ратио!  
Показать сообщения:   
Начать новую тему   Эта тема закрыта, вы не можете писать ответы и редактировать сообщения.    Торрент-трекер NNM-Club -> Мультфильмы -> Зарубежные Мультфильмы для детей Часовой пояс: GMT + 3
Страница 1 из 1