Классический форум-трекер
canvas not supported
Нас вместе: 4 079 482

Ушедшие / Okuribito (2008) DVD9


 
 
RSS
Начать новую тему   Ответить на тему    Торрент-трекер NNM-Club -> Зарубежное кино -> Азиатское кино (DVD)
Автор Сообщение
Alex_Fors ®
Стаж: 9 лет 1 мес.
Сообщений: 387
Ratio: 102,587
Поблагодарили: 18402
100%
portugal.gif
Ушедшие / Okuribito (2008) DVD9
Русское название: Ушедшие
Оригинальное название: Okuribito
Производство: Япония
Год выпуска: 2008
Жанр: Драма, Музыка

Описание фильма:
Главный герой картины — молодой виолончелист Дайго, оставшийся без работы. Вместе с женой он перебирается из мегаполиса в родной городок в провинции, где ему предложили работу в некоем агентстве, как будто туристическом. Однако, оказывается, это — похоронное бюро, и Дайго предстоит обмывать тела покойников, наряжать их и готовить к переходу в лучший мир. С большим удивлением герой понимает, что справляется со своей новой работой очень хорошо.

Режиссер: Йодзиро Такита
Актеры: Масахиро Мотоки, Цутому Ямазаки, Риоко Хиросуэ, Казуко Йошиюки, Кимико Ё, Такаси Сасано, Тэтта Сугимото, Тору Минегиши, Тацуо Ямада, Юкари Тачибана ...

Продолжительность: 02:10:14
Перевод: Одноголосый закадровый
Язык субтитров: русский
Вид субтитров: Вшитые отключаемые



Дата мировой премьеры: 23 августа 2008
Дата российской премьеры: 9 июля 2009, «Русский репортаж»
Дата выхода DVD релиза: 5 августа 2009, «Кармен Видео»

Видеокодек: MPEG-2
Битрейт видео: ~5159 kb/s
Размер кадра: 720x480@853x480 (NTSC 16:9) VBR Auto Letterboxed
Качество видео: DVD9
Аудио: (Dolby AC3, 2 ch) ~192 kb/s |Русский,одноголосый закадровый|
Аудио: (Dolby AC3, 6 ch) ~448 kb/s |Японский,оригинал|
СЭМПЛ
-Создатели и исполнители
-Обмывание тело покойника, наряжание и подготовка к переходу в лучший мир
-О фильме "Ушедшие"
Оскар, 2009 год
>>>>>Лучший фильм на иностранном языке — «Япония»<<<<<
Азиатская киноакадемия, 2009 год
>>>>>Лучшая мужская роль (Масахиро Мотоки)<<<<<
Title: Ушедшие.2008.DVD9
Size: 7.32 Gb ( 7 680 720,00 KBytes ) - DVD-9
Enabled regions: 1, 2, 3, 4, 5, 6, 7, 8

VTS_01 :
Play Length: 00:13:34
Video: NTSC 4:3 (720x480) VBR
Audio:
Japanese (Dolby AC3, 2 ch)

VTS_02 :
Play Length: 02:10:14
Video: NTSC 16:9 (720x480) VBR, Auto Letterboxed
Audio:
Russian (Dolby AC3, 2 ch)
Japanese (Dolby AC3, 6 ch)
Subtitles:
Russian

VTS_03 :
Play Length: 00:33:01+00:04:40+{00:02:12}+{00:00:32}+{00:00:16}+{00:00:16}+{00:00:16}+{00:00:16}+{00:00:16}+{00:00:16}+{00:00:16}
Video: NTSC 4:3 (720x480) VBR
Audio:
Japanese (Dolby AC3, 2 ch)

* Menus Information *

VIDEO_TS Menu
Video:
NTSC 16:9 (720x480) VBR
Auto Letterboxed
Audio:
Not specified (Dolby AC3, 2 ch)
Japanese Language Unit :
Title Menu

VTS_01 Menu
Video:
NTSC 4:3 (720x480) VBR
Auto Pan&Scan, Auto Letterboxed
Japanese Language Unit :
Root Menu

VTS_02 Menu
Video:
NTSC 16:9 (720x480) VBR
Auto Pan&Scan
Audio:
Not specified (Dolby AC3, 2 ch)
Japanese Language Unit :
Root Menu

VTS_03 Menu
Video:
NTSC 4:3 (720x480) VBR
Auto Pan&Scan, Auto Letterboxed
Japanese Language Unit :
Root Menu
Формат : MPEG-PS
Размер файла : 1024 Мбайт
Продолжительность : 24 м.
Общий поток : 5916 Кбит/сек

Видео
Идентификатор : 224 (0xE0)
Формат : MPEG Video
Версия формата : Version 2
Профиль формата : Main@Main
Параметр BVOP формата : Да
Параметр матрицы формата : Выборочная
Параметр GOP формата : M=3, N=12
Продолжительность : 24 м.
Вид битрейта : Переменный
Битрейт : 5159 Кбит/сек
Максимальный битрейт : 9800 Кбит/сек
Ширина : 720 пикселей
Высота : 480 пикселей
Соотношение сторон : 16:9
Частота кадров : 23,976 кадра/сек
Стандарт вещания : Component
Цветовое пространство : YUV
Субдискретизация насыщенности : 4:2:0
Битовая глубина : 8 бит
Тип развёртки : Прогрессивная
Порядок развёртки : 2:3 Pulldown
Метод сжатия : С потерями
Бит/(Пиксели*Кадры) : 0.623
Размер потока : 893 Мбайт (87%)

Аудио #1
Идентификатор : 189 (0xBD)-128 (0x80)
Формат : AC-3
Формат/Информация : Audio Coding 3
Расширение режима : CM (complete main)
Режим смешивания : DVD-Video
Продолжительность : 24 м.
Вид битрейта : Постоянный
Битрейт : 192 Кбит/сек
Каналы : 2 канала
Расположение каналов : Front: L R
Частота : 48,0 КГц
Битовая глубина : 16 бит
Метод сжатия : С потерями
Задержка видео : -453 мс.
Размер потока : 33,2 Мбайт (3%)

Аудио #2
Идентификатор : 189 (0xBD)-129 (0x81)
Формат : AC-3
Формат/Информация : Audio Coding 3
Расширение режима : CM (complete main)
Режим смешивания : DVD-Video
Продолжительность : 24 м.
Вид битрейта : Постоянный
Битрейт : 448 Кбит/сек
Каналы : 6 каналов
Расположение каналов : Front: L C R, Side: L R, LFE
Частота : 48,0 КГц
Битовая глубина : 16 бит
Метод сжатия : С потерями
Задержка видео : -517 мс.
Размер потока : 77,5 Мбайт (8%)

Текст
Идентификатор : 189 (0xBD)-32 (0x20)
Формат : RLE
Формат/Информация : Run-length encoding
Режим смешивания : DVD-Video
Продолжительность : 24 м.
Задержка видео : 700 мс.

Меню
Скриншоты:


Время раздачи: 18:00-21:00 до 5 скачавших
[NNM-Club.ru]_Ushedshie.2008.DVD9.torrent
 Торрент: Золотая раздача  Зарегистрирован
 
Зарегистрируйтесь и скачайте торрент!
37,8 KB

 Зарегистрирован:   05 Мар 2012 07:31:52
 Размер:   7,32 GB  (
 Рейтинг:   4,5 (Голосов: 11)
 Поблагодарили:   41
 Проверка:   Оформление проверено модератором 05 Мар 2012 10:42:11
Как cкачать  ·  Как раздать  ·  Правильно оформить  ·  Поднять ратио!  
Shtiber
Стаж: 8 лет 10 мес.
Сообщений: 4
Ratio: 9,901
Раздал: 963 GB
80%
Откуда: Архангельск
russia.gif
Фильм классный, давно хотел заполучить его в коллекцию. Рекомендую для просмотра. Спасибо раздающему! :респект:
Dev1on
Стаж: 9 лет 7 мес.
Сообщений: 75
Ratio: 1,549
100%
Откуда: Львов
ukraine.gif
Шедевральный фильм
Показать сообщения:   
Начать новую тему   Ответить на тему    Торрент-трекер NNM-Club -> Зарубежное кино -> Азиатское кино (DVD) Часовой пояс: GMT + 3
Страница 1 из 1