Классический форум-трекер
canvas not supported
Нас вместе: 4 071 034
loading...

BBC: Нацизм: Предостережение истории (1999) DVDRip


 
 
RSS
Начать новую тему   Ответить на тему    Торрент-трекер NNM-Club -> Зарубежные TV-бренды -> BBC
Автор Сообщение
andrew_o ®
Стаж: 12 лет 3 мес.
Сообщений: 5
Ratio: 59,474
Поблагодарили: 288
9.57%
BBC: Нацизм: Предостережение истории (1999) DVDRip
Жанр: Документальный, Хроники, История

Описание:
Сочетание военной кинохроники (часть которой представлена никогда не публиковавшимися ранее цветными (!) материалами), красочных карт и схем, а также компьютерной графики и специально аранжированной музыки великих композиторов — все это позволяет современному зрителю ярче и рельефнее представить и понять события тех далеких дней.

Второй фильм серии разоблачает широко распространенные мифы и домыслы, окружающие историю гитлеровской Германии. Это поистине фундаментальное исследование вопросов прихода нацистов к власти, введения ими «нового порядка» на оккупированных территориях, взаимоотношений между немецким народом и Партией, а также об ответственности «культурной нации» за все зверства фашизма…
Фильмы лежат целиком, в формате .avi

Видеокодек: DivX 5
Размер кадра: 576x432
Качество видео: DVDRip
Битрейт видео: 245 kbps
Аудиокодек: AC3
Битрейт аудио: 224 kbps
Код:
Общее
Полное имя                               :BBC - The Nazis A Warning from History\Fighting to the End.avi
Формат                                   : AVI
Формат/Информация                        : Audio Video Interleave
Размер файла                             : 700 Мбайт
Продолжительность                        : 48 м.
Общий поток                              : 2010 Кбит/сек
Программа кодирования                    : VirtualDubMod 1.5.1.1a (build 1639/release)
Библиотека кодирования                   : VirtualDubMod build 1639/release

Видео
Идентификатор                            : 0
Формат                                   : MPEG-4 Visual
Параметр BVOP формата                    : 1
Параметр QPel формата                    : Нет
Параметр GMC формата                     : 2 точки перехода
Параметр матрицы формата                 : Default (H.263)
Режим смешивания                         : Сжатый битовый поток
Идентификатор кодека                     : DX50
Идентификатор кодека/Подсказка           : DivX 5
Продолжительность                        : 48 м.
Битрейт                                  : 1776 Кбит/сек
Ширина                                   : 576 пикселей
Высота                                   : 432 пикселя
Соотношение сторон                       : 4:3
Частота кадров                           : 25,000 кадров/сек
Цветовое пространство                    : YUV
Субдискретизация насыщенности            : 4:2:0
Битовая глубина                          : 8 бит
Тип развёртки                            : Прогрессивная
Метод сжатия                             : С потерями
Бит/(Пиксели*Кадры)                      : 0.286
Размер потока                            : 619 Мбайт (88%)
Библиотека кодирования                   : DivX 5.0.5 (UTC 2003-04-24)

Аудио
Идентификатор                            : 1
Формат                                   : AC-3
Формат/Информация                        : Audio Coding 3
Расширение режима                        : CM (complete main)
Параметр Endianness формата              : Big
Идентификатор кодека                     : 2000
Продолжительность                        : 48 м.
Вид битрейта                             : Постоянный
Битрейт                                  : 224 Кбит/сек
Каналы                                   : 2 канала
Расположение каналов                     : Front: L R
Частота                                  : 48,0 КГц
Битовая глубина                          : 16 бит
Метод сжатия                             : С потерями
Задержка видео                           : 295 мс.
Размер потока                            : 78,0 Мбайт (11%)
Выравнивание                             : Разделение по промежуткам
Продолжительность промежутка             : 40  мс. (1,00 видеокадр)
Время предзагрузки промежутка            : 500  мс.
Скриншоты:
[NNM-Club.me]_BBC - The Nazis A Warning from History.torrent
 Торрент: Платиновая раздача  Зарегистрирован
 
Скачать


Примагнититься
 Зарегистрирован:   30 Сен 2015 18:10:07
 Размер:   4,1 GB  (
 Рейтинг:   4,7 (Голосов: 104)
 Поблагодарили:   274
 Проверка:   Оформление проверено модератором 30 Сен 2015 18:12:25
Как cкачать  ·  Как раздать  ·  Правильно оформить  ·  Поднять ратио!  
[no_name]
Гость
эх...ладно...надеюсь успею отдать хотябы часть половину того что скачаю :)
ups_
Стаж: 12 лет 2 мес.
Сообщений: 23
Ratio: 1,382
Поблагодарили: 78
100%
russia.gif
ну вот..
вроде многие уже докачали..(есть кому поддержать)
так что ухожу с раздачи (места на винте катастрофически нехватает.. придется нарезать и стереть..)
andrew_o ®
Стаж: 12 лет 3 мес.
Сообщений: 5
Ratio: 59,474
Поблагодарили: 288
9.57%
Господа. В чем проблема? У кого не скачивается торрент?
furious_angel
Стаж: 12 лет 3 мес.
Сообщений: 49
Ratio: 17,741
Поблагодарили: 334
9.51%
zimbabwe.gif
Насколько я понимаю всё давно уже у всех скачалось.
pullmono
Гость
Народ! желаю скачать.
помогите с раздачей, плиз.
-=MC=-
Стаж: 12 лет 1 мес.
Сообщений: 186
Ratio: 3,526
Поблагодарили: 2701
100%
russia.gif
Тема одобрена в связи с давностью её создания, но дооформить нужно!

_________________
Интернет - это инструмент для мозга. Вроде молотка. Одни люди, если дать им молоток, могут с помощью него сделать что-нибудь позитивное, а другие начинают бегать по улицам и бить по головам мирных граждан. Вопрос подхода к жизни, не более.
Vasisualy
Стаж: 11 лет 3 мес.
Сообщений: 33
Ratio: 3,381
Поблагодарили: 203
100%
Откуда: Из будущего
roody.gif
Уважаемые!!!

Будьте добры, встаньте на раздачу!!!
Vasisualy
Стаж: 11 лет 3 мес.
Сообщений: 33
Ratio: 3,381
Поблагодарили: 203
100%
Откуда: Из будущего
roody.gif
Сидоры!!!

Куда пропали, где раздача?
andorej
Стаж: 9 лет 2 мес.
Сообщений: 25
Ratio: 7,167
100%
Откуда: питер
russia.gif
пожалуйста, встаньте на раздачу!
feo-joker
Стаж: 8 лет 2 мес.
Сообщений: 1
Ratio: 0,74
11.36%
скорость маленькая!!!! станьте на раздачу пожалуйста!!
777sewer777
Стаж: 8 лет 2 мес.
Сообщений: 1
Ratio: 1,373
0%
Дайте скорости!! :злость:
Vidosick
Стаж: 9 лет 4 мес.
Сообщений: 184
Ratio: 38,456
Поблагодарили: 1588
11.26%
Вот тут выложены 2 оригининальных ДВД этого сериала. Сидов там пока предостаточно...
Показать сообщения:   
Начать новую тему   Ответить на тему    Торрент-трекер NNM-Club -> Зарубежные TV-бренды -> BBC Часовой пояс: GMT + 3
Страница 1 из 1