Классический форум-трекер
canvas not supported
Нас вместе: 4 078 123

Интерны (5-6 сезоны, 81-116 серии) (2010 - 2012) [H.264] SATRip


 
 
RSS
Начать новую тему   Ответить на тему    Торрент-трекер NNM-Club -> Отечественные сериалы -> Интерны
Автор Сообщение
Garryson ®
Сталкер
Uploader 200+
Стаж: 11 лет 2 мес.
Сообщений: 5022
Ratio: 1122,39
Поблагодарили: 160839
100%
Откуда: DFO
Интерны (5-6 сезоны, 81-116 серии) (2010 - 2012) [H.264] SATRip
Русское название: Интерны
Год выпуска: 2010 - 2012
Страна: Россия / 7 Арт Медиа
Жанр: Комедия

Дата российской премьеры: 29 марта 2010
Релиз на DVD: 15 мая 2010

Режиссер: Максим Пежемский, Заур Болотаев, Милан Килибарда, Евгений Невский
Актеры: Иван Охлобыстин, Кристина Асмус, Илья Глинников, Дмитрий Шаракоис, Александр Ильин (младший), Вадим Демчог, Светлана Камынина, Светлана Пермякова, Один Ланд Байрон, Мария Пирогова, Татьяна Лянник, Любовь Кондрашова, Екатерина Радченко, Михаил Петухов, Ирина Гавра, Юрий Вьюшкин, Олег Чернигов, Вадим Кашмай, Алиса Сапегина, Анатолий Берман, Алексей Мишаков (II), Юрий Брешин, Марина Орлова, Григорий Скряпкин, Анатолий Отраднов, Евгения Дюло, Светлана Фатина, Альбина Евтушевская, Олег Соколов (III), Виталий Пестеров, Евгений Волоцкий, Ольга Кравцова

Описание фильма:
Сериал посвящён работе молодых неопытных интернов, постоянно попадающих в нелепые ситуации. Ими руководит заведующий терапевтическим отделением — доктор Быков, постоянно над ними подшучивающий. Помогают Быкову и наблюдают за приключениями интернов его друг, доктор-венеролог Купитман, и медсестра Любовь Михайловна Скрябина, а наводит порядок в больнице главврач Анастасия Кисегач
Продолжительность: 36 x ~ 00:25:10
Качество видео: SATRip / [H.264]

Видеокодек: MPEG4/AVC
Битрейт видео: ~1103 kbps avg
Размер кадра: 720x436@767x436 (16:9)
Аудиокодек: AC3
Битрейт аудио: 48.0 kHz, AC3, 2 ch ~192 Kbps avg
Съемки ведутся на цифровую камеру Red One, которая дает картинку, близкую по качеству к кино.
Ситком снимает режиссер Максим Пежемский, который уже работал с Охлобыстиным на фильме «Мама, не горюй».
Готовый материал «Интернов» проходит тщательную цветокоррекцию.
В ситкоме нет закадрового смеха, потому что он и так очень смешной.
Вместо привычной для ситкомов трехстенной декорации в огромном павильоне выстроена целая больница.
Все медицинские инструменты и приборы – настоящие. Бутафорский на площадке только туалет.
Идея ситкома принадлежит Вячеславу Дусмухаметову, одному из создателей «Универа», сценаристу фильма «Наша Russia. Яйца Судьбы» и продюсеру программы Comedy Woman на ТНТ.
Очки интерна Левина - собственность актера Дмитрия Шаракоиса. То очки его покойного дедушки. У самого Дмитрия стопроцентное зрение. В очки он вставил специальные линзы без диоптрий и в таком виде пришел на пробы «Интернов». В этом имидже его и утвердили на роль интерна Левина.
Фамилию Левин интерн-ботаник позаимствовал у реального человека – финансового продюсера сериала.
В декорациях больницы, где происходит действие «Интернов» есть туалет. Но он бутафорский – канализация не проведена. Поэтому рядом с туалетом висит предупреждение, чтобы никто из съемочной группы не вздумал им воспользоваться.
Лекарства, которые появляются в кадре – настоящие. Медицинская аппаратура тоже. Часть ее взята в аренду, часть – списана.
Коньяк, который стоит в кабинет венеролога доктора Купитмана, - самый настоящий! Правда, бутылки повернуты этикетками внутрь, чтобы не рекламировать производителя.
Когда Купитман употребляет в кадре - он пьет подкрашенный чай, а не спиртное. Кстати, иногда чай даже не успевал остыть, поэтому в некоторых сценах можно увидеть, что рюмка слегка запотевшая…
На правой руке доктора Быкова болтаются 2 самодельные фенечки (браслеты из ниток). В одной из серий выяснится, что их ему сделал дочка и он носит уже 10 лет.
Кисегач - это не только фамилия главврача сериала, но и название одного из озер Челябинской области.
В 17-й серии хорошо видно, что у Романенко мобильный телефон Nokia E71.
В 19-й серии хорошо видно, что у Кисегач мобильный телефон Nokia 5130 XpressMusic.
Часы Быкова из сериала ИнтерныБыков носит на руке часы Nautica A43001G Gents SPETTACOLARE DUO Titanium Chronograph Flip Watch с двумя кварцевыми механизмами: верхний — обычный хронограф с тахиметрической шкалой, а нижний — 24-х часовой хронометр с ретроградной индикацией времени дополнительного часового пояса. Часы стоят примерно столько же, сколько и iPhone, который хорошо видно в 11 и 23 сериях. Также в ординаторской стоит ЖК-телевизор и был X-box 360, который был сломан Купитманом. При этом Быков часто жалуется на маленькую зарплату.
В 6-ой серии Быков играет в «S.T.A.L.K.E.R.». Это следует из сказанной им фразы: «Это свободовцы. А где Кровосос?». При этом компьтерную мышь он держит в левой руке, хотя Быков правша.
В одной из серий было видно, что у Быкова iPhone 3G.
В отличие от большинства юмористических сериалов в «Интернах» отсутствует закадровый смех, а герои в кадре часто курят.
В одной из серий Быков произносит фразу «сказочный идиот». Это является отсылкой к фильму Даун Хаус, сценаристом которого является Охлобыстин. Также он сыграл в нём одну из главных ролей.
Ивану Охлобыстину было не сложно вжиться, как говорят актеры, в образ доктора Быкова. Его отец был главврачом, эти воспоминания талантливый актер частично перенес на свою роль в сериале Интерны.
Исполнительного продюсера сериала зовут Андрей Левин. Не исключено, что фамилию для одного из интернов нарочно позаимствовали у продюсера.
В сюжете присутствуют мелкие погрешности — в терапевтическое отделение часто попадают «хирургические» больные; Быков, руководящий интернами, не является сотрудником кафедры медуниверситета или академии. Интерны специализируются по терапии, хирургии, акушерству и гинекологии, дерматовенерологии и травматологии одновременно и прочие детали, не влияющие на комедийность сюжета, а иногда и прибавляющие ему остроты.
Формат : Matroska
Размер файла : 224 Мбайт
Продолжительность : 24 м.
Общий поток : 1296 Кбит/сек
Дата кодирования : UTC 2011-09-29 07:05:53
Программа кодирования : mkvmerge v4.6.0 ('Still Crazy After All These Years') сборка от Apr 1 2011 21:01:49
Библиотека кодирования : libebml v1.2.0 + libmatroska v1.1.0

Видео
Идентификатор : 1
Формат : AVC
Формат/Информация : Advanced Video Codec
Профиль формата : High@L3.1
Параметр CABAC формата : Да
Параметр ReFrames формата : 11 кадры
Идентификатор кодека : V_MPEG4/ISO/AVC
Продолжительность : 24 м.
Битрейт : 1103 Кбит/сек
Ширина : 720 пикс.
Высота : 436 пикс.
Соотношение сторон : 16:9
Частота кадров : 25,000 кадр/сек
Цветовое пространство : YUV
Подвыборка цветности : 4:2:0
Битовая глубина : 8 бит
Тип развёртки : Прогрессивная
Бит/(Пиксели*Кадры) : 0.141
Размер потока : 186 Мбайт (83%)
Заголовок : Rip by iriston
Библиотека кодирования : x264 core 115 r2008 4c552d8
Настройки программы : cabac=1 / ref=11 / deblock=1:-2:-1 / analyse=0x3:0x133 / me=umh / subme=10 / psy=1 / psy_rd=1.00:0.20 / mixed_ref=1 / me_range=16 / chroma_me=1 / trellis=2 / 8x8dct=1 / cqm=0 / deadzone=21,11 / fast_pskip=0 / chroma_qp_offset=-3 / threads=12 / sliced_threads=0 / nr=0 / decimate=0 / interlaced=0 / bluray_compat=0 / constrained_intra=0 / bframes=8 / b_pyramid=2 / b_adapt=2 / b_bias=0 / direct=3 / weightb=1 / open_gop=0 / weightp=2 / keyint=250 / keyint_min=25 / scenecut=40 / intra_refresh=0 / rc_lookahead=60 / rc=2pass / mbtree=1 / bitrate=1103 / ratetol=1.0 / qcomp=0.60 / qpmin=0 / qpmax=69 / qpstep=4 / cplxblur=20.0 / qblur=0.5 / ip_ratio=1.40 / aq=2:1.00
Язык : Russian
Коэффициенты матрицы : BT.470-6 System B, BT.470-6 System G, BT.601-6 625, BT.1358 625, BT.1700 625 PAL, BT.1700 625 SECAM, IEC 61966-2-4 601

Аудио
Идентификатор : 2
Формат : AC-3
Формат/Информация : Audio Coding 3
Расширение режима : CM (complete main)
Идентификатор кодека : A_AC3
Продолжительность : 24 м.
Вид битрейта : Постоянный
Битрейт : 192 Кбит/сек
Канал(ы) : 2 канала(ов)
Расположение каналов : Front: L R
Частота : 48,0 КГц
Битовая глубина : 16 бит
Метод сжатия : С потерями
Размер потока : 33,1 Мбайт (15%)
Язык : Russian
Скриншоты:




Время раздачи: 24/7
[NNM-Club.ru]_Interny.(5-6 sezony, 81-116 serii).2010-2012.SATRip.torrent
 Торрент: Платиновая раздача  Зарегистрирован
 
Скачать


 Зарегистрирован:   21 Апр 2012 12:07:00
 Размер:   7,86 GB  (
 Рейтинг:   4,8 (Голосов: 96)
 Поблагодарили:   414
 Проверка:   Оформление проверено модератором 21 Апр 2012 12:08:35
Как cкачать  ·  Как раздать  ·  Правильно оформить  ·  Поднять ратио!  
yjinold
Стаж: 10 лет 6 мес.
Сообщений: 51
Ratio: 4,415
100%
russia.gif
Есть ли в кадрах реклама?
bibig
Стаж: 9 лет 1 мес.
Сообщений: 4
Ratio: 1,573
Раздал: 985 GB
0%
Цитата:
Размер кадра: 720x436@767x436 (16:9)

Можно уточнить источник видео?
Пережатый другой релиз или действительно SATRip???
angelofnet
Стаж: 12 лет
Сообщений: 373
Ratio: 54,095
100%
russia.gif
Реальный качественный SATRip без риперских заставок. Картинка, правда, "мягкая". Но это её не портит. :)

anonymous, камрад, спасибо!

_________________
-= В жизни всё не так, как на самом деле =-
Kot-Behemot
Стаж: 9 лет 8 мес.
Сообщений: 33
Ratio: 0,407
100%
canada.gif
чего то нет обновлений
Показать сообщения:   
Начать новую тему   Ответить на тему    Торрент-трекер NNM-Club -> Отечественные сериалы -> Интерны Часовой пояс: GMT + 3
Страница 1 из 1