Классический форум-трекер
canvas not supported
Нас вместе: 4 078 122

Баранкин, будь человеком! (1963) DVDRip


 
 
RSS
Начать новую тему   Ответить на тему    Торрент-трекер NNM-Club -> Мультфильмы -> Отечественные Мультфильмы для детей
Автор Сообщение
mixa-81 ®
Стаж: 12 лет 5 мес.
Сообщений: 445
Ratio: 2,106
Поблагодарили: 13071
100%
finland.gif
Баранкин, будь человеком! (1963) DVDRip
Год выпуска: 1963
Жанр: Рисованная анимация, короткометражка
Производство: ФГУП "Киностудия "Союзмультфильм" СССР

Режиссер: Александра Снежко-Блоцкая
Сценарист: В. Медведев
Художник-постановщик: Ильдар Урманче
Художники: Ирина Светлица, Е. Танненберг
Аниматоры: Владимир Крумин, Галина Баринова, Елизавета Комова, Татьяна Федорова, Владимир Карп, Татьяна Таранович, Е. Вершинина, Константин Чикин, Борис Чани, О. Столбова, Борис Бутак

Описание:
Бездельник и двоечник Баранкин мечтает об одном - ничего не делать. При помощи волшебных превращений он убеждается, что без труда не проживешь.



Продолжительность: 00:20:16
Качество видео: DVDRip

Видеокодек: XviD
Битрейт видео: 1683 kb/с
Размер кадра: 720*576
Аудиокодек: AC3 2.0
Битрейт аудио: 192 kb/c
Код:
General
Format                                   : AVI
Format/Info                              : Audio Video Interleave
File size                                : 273 MiB
Duration                                 : 20mn 16s
Overall bit rate                         : 1 885 Kbps
Writing application                      : VirtualDubMod 1.5.10.1 (build 2366/release)
Writing library                          : VirtualDubMod build 2366/release

Video
ID                                       : 0
Format                                   : MPEG-4 Visual
Format profile                           : Advanced Simple@L5
Format settings, BVOP                    : 2
Format settings, QPel                    : No
Format settings, GMC                     : No warppoints
Format settings, Matrix                  : Default (H.263)
Muxing mode                              : Packed bitstream
Codec ID                                 : XVID
Codec ID/Hint                            : XviD
Duration                                 : 20mn 16s
Bit rate                                 : 1 683 Kbps
Width                                    : 720 pixels
Height                                   : 576 pixels
Display aspect ratio                     : 5:4
Frame rate                               : 25.000 fps
Standard                                 : PAL
Color space                              : YUV
Chroma subsampling                       : 4:2:0
Bit depth                                : 8 bits
Scan type                                : Progressive
Compression mode                         : Lossy
Bits/(Pixel*Frame)                       : 0.162
Stream size                              : 244 MiB (89%)
Writing library                          : XviD 1.0.3 (UTC 2004-12-20)

Audio
ID                                       : 1
Format                                   : AC-3
Format/Info                              : Audio Coding 3
Mode extension                           : CM (complete main)
Format settings, Endianness              : Big
Codec ID                                 : 2000
Duration                                 : 20mn 16s
Bit rate mode                            : Constant
Bit rate                                 : 192 Kbps
Channel(s)                               : 2 channels
Channel positions                        : Front: L R
Sampling rate                            : 48.0 KHz
Bit depth                                : 16 bits
Compression mode                         : Lossy
Stream size                              : 27.8 MiB (10%)
Alignment                                : Aligned on interleaves
Interleave, duration                     : 40 ms (1.00 video frame)
Interleave, preload duration             : 512 ms
Скриншоты:
Barankin budj 4elovekom.torrent
 Торрент: Платиновая раздача  Зарегистрирован
 
Скачать


 Зарегистрирован:   10 Фев 2008 15:33:35
 Размер:   273 MB  (
 Рейтинг:   4,9 (Голосов: 36)
 Поблагодарили:   143
 Проверка:   Оформление проверено модератором 10 Фев 2008 15:37:31
Как cкачать  ·  Как раздать  ·  Правильно оформить  ·  Поднять ратио!  
CrazyOrange
Стаж: 11 лет 7 мес.
Сообщений: 91
Ratio: 2,503
Поблагодарили: 1433
100%
Откуда: СПб
russia.gif
Спасибо, очень актуальный мульт, покажу сыну, который огреб первую двойку , но не расстроился :незнает:
Показать сообщения:   
Начать новую тему   Ответить на тему    Торрент-трекер NNM-Club -> Мультфильмы -> Отечественные Мультфильмы для детей Часовой пояс: GMT + 3
Страница 1 из 1