Классический форум-трекер
canvas not supported
Нас вместе: 4 065 333

Доктор Хаус / House M.D. (2012) WEB-DLRip (8 сезон: Специальный эпизод / Ретроспектива) [NewStudio]


 
 
RSS
Начать новую тему   Ответить на тему    Торрент-трекер NNM-Club -> Зарубежные сериалы -> Доктор Хаус / House M.D.
Автор Сообщение
anonymous
Стаж: 10 лет 7 мес.
Сообщений: 3156
Поблагодарили: 77413
0%
Доктор Хаус (8 сезон: Специальный эпизод / Ретроспектива) / House M.D. (2012) WEB-DLRip [NewStudio]
Русское название: Доктор Хаус
Оригинальное название: House M.D.
Год выпуска: 2012
Страна: США | Bad Hat Harry Productions, Heel & Toe Films
Жанр: Драма, Детектив


Дата мировой премьеры: 16 ноября 2004
Дата российской премьеры: 27 августа 2007
Дата выхода DVD/Blu-Ray релиза: 7 апреля 2009

Режиссеры: Грег Яйтанс, Питер О’Фаллон, Мэтт Сакма

Актеры: Хью Лори, Омар Эппс, Роберт Шон Леонард, Джесси Спенсер, Лиза Эдельштейн, Боббин Бергсторм, Дженнифер Моррисон, Питер Джекобсон, Оливия Уайлд, Кэл Пенн, Одетт Эннэйбл, Шарлин Йи, Энн Дудек, Дженнифер Кристал, Эмбер Тэмблин, Лиз Бенуа, Стефани Вендитто, Майкл Уэстон, Села Уорд, Рон Перкинс, Эди Гатеги, Синтия Уэтрос, Дэвид Морс, Трэйси Вилар, Кайла Колбер


Описание фильма:
Сериал House M.D. рассказывает о команде врачей, которые должны правильно поставить диагноз пациенту и спасти его. В принципе сериал представляет из себя вариацию схемы «врач как детектив», но в отличие от остальных сериалов, где врачи обследуют уже мертвого пациента, в House M.D. больной находится еще в живых.......
Продолжительность: 00:43:36
Качество видео: WEB-DLRip

Видеокодек: XviD
Битрейт видео: ~2015 kbps avg, 23,976 fps
Размер кадра: 720x400, 16:9, 0.292 bit/pixel
Аудиокодек: AC3
Аудио:
Аудио №#1: 48.0 kHz, AC3, 6 ch ~384 Kbps avg / Профессиональный (многоголосый закадровый) / (NewStudio)
Аудио №#1: 48.0 kHz, AC3, 6 ch ~384 Kbps avg

Озвучка: Петр Иващенко (Гланц), Александр Дасевич, Константин Погодаев, Ирина Воронова, Татьяна Еленева, Марина Лисовец, Анна Тух
Перевод: Z
Подготовка видео: Koss
Работа со звуком: Koss
...........................................
1. Ретроспектива: Лебединая песня / Retrospective: Swan Song
Релиз группа:
Полное имя : Doktor.Haus.(8.sezon.specialnyj.jepizod.retrospektiva).2012.XviD.WEB-DLRip.avi
Формат : AVI
Формат/Информация : Audio Video Interleave
Профиль формата : OpenDML
Настройки формата : rec
Размер файла : 871 Мбайт
Продолжительность : 43 м.
Общий поток : 2791 Кбит/сек
Программа кодирования : AVI-Mux GUI 1.17.8, Aug 30 2008 12:36:58

Видео
Идентификатор : 0
Формат : MPEG-4 Visual
Профиль формата : Advanced Simple@L5
Параметр BVOP формата : 2
Параметр QPel формата : Нет
Параметр GMC формата : Без точки перехода
Параметр матрицы формата : Default (MPEG)
Идентификатор кодека : XVID
Идентификатор кодека/Подсказка : XviD
Продолжительность : 43 м.
Битрейт : 2015 Кбит/сек
Ширина : 720 пикселей
Высота : 400 пикселей
Соотношение сторон : 16:9
Частота кадров : 23,976 кадра/сек
Цветовое пространство : YUV
Субдискретизация насыщенности : 4:2:0
Битовая глубина : 8 бит
Тип развёртки : Прогрессивная
Метод сжатия : С потерями
Бит/(Пиксели*Кадры) : 0.292
Размер потока : 629 Мбайт (72%)
Библиотека кодирования : XviD 1.2.1 (UTC 2008-12-04)

Аудио #1
Идентификатор : 1
Формат : AC-3
Формат/Информация : Audio Coding 3
Расширение режима : CM (complete main)
Параметр Endianness формата : Big
Идентификатор кодека : 2000
Продолжительность : 43 м.
Вид битрейта : Постоянный
Битрейт : 384 Кбит/сек
Каналы : 6 каналов
Расположение каналов : Front: L C R, Side: L R, LFE
Частота : 48,0 КГц
Битовая глубина : 16 бит
Метод сжатия : С потерями
Размер потока : 120 Мбайт (14%)
Выравнивание : Соединение по промежуткам
Продолжительность промежутка : 64 мс. (1,53 видеокадра)
Время предзагрузки промежутка : 192 мс.

Аудио #2
Идентификатор : 2
Формат : AC-3
Формат/Информация : Audio Coding 3
Расширение режима : CM (complete main)
Параметр Endianness формата : Big
Идентификатор кодека : 2000
Продолжительность : 43 м.
Вид битрейта : Постоянный
Битрейт : 384 Кбит/сек
Каналы : 6 каналов
Расположение каналов : Front: L C R, Side: L R, LFE
Частота : 48,0 КГц
Битовая глубина : 16 бит
Метод сжатия : С потерями
Размер потока : 120 Мбайт (14%)
Выравнивание : Соединение по промежуткам
Продолжительность промежутка : 64 мс. (1,53 видеокадра)
Время предзагрузки промежутка : 192 мс.
Скриншоты:


[NNM-Club.ru]_Doktor.Haus.(8.sezon.specialnyj.jepizod.retrospektiva).2012.XviD.WEB-DLRip.DeathN2.torrent
 Торрент: Платиновая раздача  Зарегистрирован
 
Скачать


 Зарегистрирован:   24 Май 2012 11:51:27
 Размер:   871 MB  (
 Рейтинг:   4,6 (Голосов: 40)
 Поблагодарили:   116
 Проверка:   Оформление проверено модератором 24 Май 2012 11:54:09
Как cкачать  ·  Как раздать  ·  Правильно оформить  ·  Поднять ратио!  
Loading...
Ironstuff
Стаж: 9 лет 7 мес.
Сообщений: 220
Ratio: 2952,238
Поблагодарили: 2
100%
russia.gif
А что это?
anton84des
Стаж: 7 лет
Сообщений: 2
Ratio: 5,382
100%
Это фильм о фильме. Как снимали, кто снимал, разные ньюансы. Интересно для поклонников сериала.
TollayaEkb
Стаж: 8 лет 10 мес.
Сообщений: 5789
Ratio: 2181,466
Раздал: 116,5 TB
Поблагодарили: 215714
100%
Откуда: Екб
russia.gif
Так то этот эпизод включен в http://www.nnmclub.to/forum/viewtopic.php?t=396395
Показать сообщения:   
Начать новую тему   Ответить на тему    Торрент-трекер NNM-Club -> Зарубежные сериалы -> Доктор Хаус / House M.D. Часовой пояс: GMT + 3
Страница 1 из 1