Классический форум-трекер
canvas not supported
Нас вместе: 4 065 559

Доктор Хаус / House M.D. (2011) HDTVRip [720p] (Сезон 8, серии 1-22 + спец. эпизод) LostFilm


Страницы:   Пред.  1, 2 
 
RSS
Начать новую тему   Ответить на тему    Торрент-трекер NNM-Club -> Зарубежные сериалы -> Доктор Хаус / House M.D.
Автор Сообщение
Bacup ®
Стаж: 7 лет 7 мес.
Сообщений: 83
Ratio: 12K
Поблагодарили: 4114
100%
Доктор Хаус / House M.D. (2011) HDTVRip /b]
[b]Русское название:
Доктор Хаус
Оригинальное название: House M.D.
Год выпуска: 2011
Жанр: Драма, Детектив, Комедия

Перевод: Многоголосый закадровый, профессиональный
Озвучка / Автор перевода: Студия "Кравец"
Вид субтитров: Отсутствуют

Релиз группа: LostFilm



Режиссер: Деран Сарафян, Дэвид Платт, Фред Гербер
Актеры: Хью Лори, Роберт Шон Леонард, Джесси Спенсер, Омар Эппс, Дженнифер Моррисон и другие...

Описание фильма:
Прошел год с тех пор как Грегори Хаус (Хью Лори) въехал на автомобиле в дом Лизы Кадди (Лиза Эдельштейн). Хаус проводит время за решеткой Восточного Исправительного учреждения Нью-Джерси под пристальным присмотром тюремного начальника (приглашенная звезда Пэре). Когда враждебно настроенный тюремный главарь создает серьезную угрозу Хаусу, он просит помощи у такого же тюремного обитателя (приглашенная звезда Уайт). Но когда необычные медицинские симптомы еще одного заключенного возбуждают его любопытство, Хаус вынужден придумать изощренные способы лечения пациента, в рамках жестких тюремных правил. Хаус встречает доктора Джессику Адамс (Одетт Эннейбл), молодую, умную, с ясным умом женщину, врача клиники. Они сталкиваются во мнениях в процессе диагностирования болезни пациента, опасной для его жизни. Доктор Адамс должна сделать выбор, довериться ли доктору Хаусу, чтобы помочь больному, но тем самым поставить под угрозу свою собственную карьеру.

Продолжительность: 00:44:05
Качество видео: HDTVRip
Сэмпл: Скачать
Видеокодек: AVC
Битрейт видео: ~4 001 Kbps
Размер кадра: 1280х720
Аудиокодек: AC3 2.0
Битрейт аудио: 384 Kbps
General
Unique ID : 195397834175313140658932914538984868240 (0x93004105883E72EA8196A7D185858990)
Complete name : D:\VIDEO\House M.D\8 сезон\House.M.D.s08e01.rus.720p.LostFilm.TV.mkv
Format : Matroska
Format version : Version 2
File size : 1.50 GiB
Duration : 44mn 5s
Overall bit rate : 4 866 Kbps
Encoded date : UTC 2011-10-05 16:42:31
Writing application : mkvmerge v4.3.0 ('Escape from the Island') сборка от Sep 5 2010 10:30:51
Writing library : libebml v1.0.0 + libmatroska v1.0.0

Video
ID : 1
Format : AVC
Format/Info : Advanced Video Codec
Format profile : Main@L3.1
Format settings, CABAC : No
Format settings, ReFrames : 3 frames
Format settings, GOP : M=2, N=24
Codec ID : V_MPEG4/ISO/AVC
Duration : 44mn 5s
Bit rate : 4 001 Kbps
Width : 1 280 pixels
Height : 720 pixels
Display aspect ratio : 16:9
Frame rate : 23.976 fps
Standard : NTSC
Color space : YUV
Chroma subsampling : 4:2:0
Bit depth : 8 bits
Scan type : Progressive
Bits/(Pixel*Frame) : 0.181
Stream size : 1.23 GiB (82%)
Color primaries : BT.601-6 525, BT.1358 525, BT.1700 NTSC, SMPTE 170M
Transfer characteristics : BT.709-5, BT.1361
Matrix coefficients : BT.601-6 525, BT.1358 525, BT.1700 NTSC, SMPTE 170M

Audio #1
ID : 2
Format : AC-3
Format/Info : Audio Coding 3
Mode extension : CM (complete main)
Codec ID : A_AC3
Duration : 44mn 5s
Bit rate mode : Constant
Bit rate : 384 Kbps
Channel(s) : 2 channels
Channel positions : Front: L R
Sampling rate : 48.0 KHz
Bit depth : 16 bits
Compression mode : Lossy
Stream size : 121 MiB (8%)

Audio #2
ID : 3
Format : AC-3
Format/Info : Audio Coding 3
Mode extension : CM (complete main)
Codec ID : A_AC3
Duration : 44mn 5s
Bit rate mode : Constant
Bit rate : 384 Kbps
Channel(s) : 2 channels
Channel positions : Front: L R
Sampling rate : 48.0 KHz
Bit depth : 16 bits
Compression mode : Lossy
Stream size : 121 MiB (8%)

Скриншоты:


Время раздачи: с 10-00 до 23-00
[NNM-Club.ru]_8 sezon.torrent
 Торрент: Платиновая раздача  Зарегистрирован
 
Скачать


 Зарегистрирован:   26 Май 2012 18:04:48
 Размер:   33,8 GB  (
 Рейтинг:   4,7 (Голосов: 272)
 Поблагодарили:   825
 Проверка:   Оформление проверено модератором 26 Май 2012 23:22:21
Как cкачать  ·  Как раздать  ·  Правильно оформить  ·  Поднять ратио!  
SAMSONOV YURI
Стаж: 8 лет 10 мес.
Сообщений: 13
Ratio: 43,216
100%
ukraine.gif
Привык я к этому сериалу, что-то не нравилось, что-то бесило, но в основном ждал с нетерпением, а смотрел с удовольствием.
Dr-Domain
Стаж: 7 лет
Сообщений: 10
Ratio: 2,439
100%
В конце самой-самой последней серии самого-самого последнего сезона... Это мост из "Сумасшедшей езды"? Он? Съемка другая. Мост очень похож!
Показать сообщения:   
Начать новую тему   Ответить на тему    Торрент-трекер NNM-Club -> Зарубежные сериалы -> Доктор Хаус / House M.D. Часовой пояс: GMT + 3
Страницы:   Пред.  1, 2
Страница 2 из 2