Классический форум-трекер
canvas not supported
Нас вместе: 4 068 812

[MP4 360x640] Белый тигр (2012) DVDRip


 
 
RSS
Начать новую тему   Ответить на тему    Торрент-трекер NNM-Club -> Мультимедиа и прочее -> Мобильное Видео
Автор Сообщение
YaKrevetko ®
Стаж: 7 лет 2 мес.
Сообщений: 2328
Ratio: 118,896
Поблагодарили: 26551
100%
krevedko.png
Белый тигр (2012) DVDRip
Русское название: Белый тигр
Год выпуска: 2012
Производство: Россия / Первый канал, Мосфильм
Жанр: Военный
Перевод: Оригинал [Лицензия]
Субтитры: Отсутствуют

Дата российской премьеры: 3 мая 2012, «Каропрокат»
Дата выхода DVD релиза: 31 мая 2012, «Союз-Видео», ...
Дата выхода Blu-Ray релиза: 28 июня 2012, «Союз-Видео», ...

Режиссер: Карен Шахназаров
Продюсер: Карен Шахназаров, Галина Шадур
Актеры: Виталий Кищенко, Алексей Вертков, Владимир Ильин, Александр Вахов, Виталий Дорджиев, Валерий Гришко, Кристиан Редль, Карл Кранцковски, Леонид Орлов, Дмитрий Быковский-Ромашов

Описание фильма:
Вторая Мировая война подходит к концу. Тяжелые затяжные бои изматывают обе стороны. Но чем увереннее наступают советские войска, тем чаще на полях сражений появляется огромным неуязвимый немецкий танк «Белый Тигр».

Внезапно возникает он в дыму сражений, безжалостно расстреливает своих противников и неожиданно исчезает. Советское командование решает для борьбы с «Белым Тигром» создать особый танк — специальную модель Т-34.



Продолжительность: 01:44:06
Качество видео: DVDRip

Видеокодек: MPEG-4
Битрейт видео: ~770 Кбит/сек
Размер кадра: 360х640
Аудиокодек: MP3
Аудио: 128 Kbps
Код:

General
Complete name                            : F:\Tracker\Beliy.Tigr.2012.H.264.BDRip.mp4
Format                                   : MPEG-4
Format profile                           : Base Media / Version 2
Codec ID                                 : mp42
File size                                : 700 MiB
Duration                                 : 1h 48mn
Overall bit rate                         : 900 Kbps
Encoded date                             : UTC 2012-06-27 23:38:38
Tagged date                              : UTC 2012-06-28 00:55:16

Video
ID                                       : 1
Format                                   : MPEG-4 Visual
Format profile                           : Simple@L0
Format settings, BVOP                    : No
Format settings, QPel                    : No
Format settings, GMC                     : No warppoints
Format settings, Matrix                  : Default (H.263)
Codec ID                                 : 20
Duration                                 : 1h 48mn
Bit rate mode                            : Constant
Bit rate                                 : 770 Kbps
Width                                    : 640 pixels
Height                                   : 360 pixels
Display aspect ratio                     : 16:9
Frame rate mode                          : Constant
Frame rate                               : 25.000 fps
Color space                              : YUV
Chroma subsampling                       : 4:2:0
Bit depth                                : 8 bits
Scan type                                : Progressive
Compression mode                         : Lossy
Bits/(Pixel*Frame)                       : 0.134
Stream size                              : 599 MiB (86%)
Language                                 : English
Encoded date                             : UTC 2012-06-27 23:38:38
Tagged date                              : UTC 2012-06-28 00:55:16

Audio
ID                                       : 2
Format                                   : MPEG Audio
Format version                           : Version 1
Format profile                           : Layer 3
Codec ID                                 : 6B
Duration                                 : 1h 48mn
Source duration                          : 1h 48mn
Bit rate mode                            : Constant
Bit rate                                 : 128 Kbps
Channel(s)                               : 1 channel
Sampling rate                            : 44.1 KHz
Compression mode                         : Lossy
Stream size                              : 99.5 MiB (14%)
Source stream size                       : 99.5 MiB (14%)
Writing library                          : LAME3.98.2
Language                                 : English
Encoded date                             : UTC 2012-06-27 23:38:38
Tagged date                              : UTC 2012-06-28 00:55:16
Скриншоты:


Время раздачи: С 10.00 до 23.00

[NNM-Club.ru]_Beliy.Tigr.2012.H.264.BDRip.mp4.torrent
 Торрент: Платиновая раздача  Зарегистрирован
 
Скачать


 Зарегистрирован:   28 Июн 2012 11:29:06
 Размер:   700 MB  (
 Рейтинг:   3,9 (Голосов: 51)
 Поблагодарили:   144
 Проверка:   Оформление проверено модератором 28 Июн 2012 11:38:21
Как cкачать  ·  Как раздать  ·  Правильно оформить  ·  Поднять ратио!  
ShmatOFF
Стаж: 8 лет 10 мес.
Сообщений: 159
Ratio: 52,744
Раздал: 37,43 TB
Поблагодарили: 460
100%
pirates.png
Качество местами подводит. Сначала на телефоновый проигрыватель грешил, но на компе тоже самое.

_________________
Показать сообщения:   
Начать новую тему   Ответить на тему    Торрент-трекер NNM-Club -> Мультимедиа и прочее -> Мобильное Видео Часовой пояс: GMT + 3
Страница 1 из 1