Классический форум-трекер
canvas not supported
Нас вместе: 4 068 814

[MP4, PSP, 800x336] Напролом / Lockout [UNRATED](2012) BDRip


 
 
RSS
Начать новую тему   Ответить на тему    Торрент-трекер NNM-Club -> Мультимедиа и прочее -> Мобильное Видео
Автор Сообщение
Synchronizer ®
Стаж: 6 лет 9 мес.
Сообщений: 372
Ratio: 8,038
Поблагодарили: 2826
66.81%
Откуда: атомная свалка
Напролом / Lockout [UNRATED]
Русское название: Напролом
Оригинальное название: Lockout
Год выпуска: 2012
Жанр: боевик, фантастика
Бюджет: $ 20 000 000
Сайт фильма: lockoutfilm

Описание фильма:
Орбитальная станция MS1 — крупнейшая космическая тюрьма, где в анабиозе содержатся тысячи опасных преступников. Ходят слухи, что над погруженными в искусственный сон узниками проводятся противозаконные эксперименты. С расследованием на станцию отправлена комиссия во главе с Эмили Уорнок, дочерью президента США. Нарушив правила, телохранитель Эмили пронёс ствол в комнату с прикованным к стулу зеком, где проходила беседа с ним. Бандит оказался карманником и выскользнув из оков стянул пистолет. Неожиданно ситуация выходит из-под контроля, и вся станция оказывается захвачена уголовниками. Выпустивший всех зеков маньяк сразу положил глаз на `улыбашку` Эмели, но его брат, который тоже проснулся, берёт ситуацию в свои руки и держит своего брата-маньяка в узде, понимая что заложники это их единственный шанс выжить. Спецагент Сноу, несправедливо обвиненный в государственной измене, получает задание проникнуть в самую неприступную тюрьму во Вселенной, которая без управления падает на Землю и спасти Эмили. Это его шанс вернуть себе доброе имя и получить свободу.

Режиссер: Джеймс Мэтер, Стивен Ст. Леджер
Актеры: Гай Пирс, Мэгги Грэйс, Винсент Риган, Джозеф Гилган, Ленни Джеймс, Петер Стормаре, Джеки Идо, Тим Плестер, Энн-Соленн Хатте


Кaчeствo видeo: BDRip
Продолжительность: 01:35:19
Перевод: дублированный

Формат: MP4
Видео: MPEG4 AVC/H.264, 800x336, 1435 kbps
Аудио: AAC 2ch, 48 kHz, 128 kbps

Скриншоты:

Код:
Общее
Полное имя                               : Lockout.2012.BDRip.mp4
Формат                                   : MPEG-4
Профиль формата                          : Sony PSP
Идентификатор кодека                     : MSNV
Размер файла                             : 1,04 Гбайт
Продолжительность                        : 1 ч. 35 м.
Общий поток                              : 1564 Кбит/сек
Дата кодирования                         : UTC 2012-07-28 08:40:33
Дата пометки                             : UTC 2012-07-28 08:40:33
Библиотека кодирования                   : AVS

Видео
Идентификатор                            : 1
Формат                                   : AVC
Формат/Информация                        : Advanced Video Codec
Профиль формата                          : Mаin@L4.1
Параметр CABAC формата                   : Да
Параметр ReFrames формата                : 1 кадр
Идентификатор кодека                     : avc1
Идентификатор кодека/Информация          : Advanced Video Coding
Продолжительность                        : 1 ч. 35 м.
Битрейт                                  : 1435 Кбит/сек
Ширина                                   : 800 пикселей
Высота                                   : 336 пикселей
Соотношение сторон                       : 2,40:1
Режим частоты кадров                     : Постоянный
Частота кадров                           : 24,000 кадра/сек
Цветовое пространство                    : YUV
Субдискретизация насыщенности            : 4:2:0
Битовая глубина                          : 8 бит
Тип развёртки                            : Прогрессивная
Бит/(Пиксели*Кадры)                      : 0.222
Размер потока                            : 978 Мбайт (92%)
Язык                                     : English
Дата кодирования                         : UTC 2012-07-28 08:40:33
Дата пометки                             : UTC 2012-07-28 08:40:33
Основные цвета                           : BT.709-2, SMPTE 274M, SMPTE 296M
Характеристики трансфера                 : BT.709-2, SMPTE 170M, SMPTE 274M, SMPTE 293M, SMPTE 296M
Коэффициенты матрицы                     : BT.709-2, SMPTE 274M, SMPTE 296M

Аудио
Идентификатор                            : 2
Формат                                   : AAC
Формат/Информация                        : Advanced Audio Codec
Профиль формата                          : LC
Идентификатор кодека                     : 40
Продолжительность                        : 1 ч. 35 м.
Вид битрейта                             : Постоянный
Битрейт                                  : 128 Кбит/сек
Каналы                                   : 2 канала
Расположение каналов                     : Front: L R
Частота                                  : 48,0 КГц
Метод сжатия                             : С потерями
Размер потока                            : 85,4 Мбайт (8%)
Язык                                     : English
Дата кодирования                         : UTC 2012-07-28 08:40:33
Дата пометки                             : UTC 2012-07-28 08:40:33
Время раздачи: с 18:00 до 22:00
[NNM-Club.ru]_Lockout.2012.BDRip.mp4.torrent
 Торрент: Платиновая раздача  Зарегистрирован
 
Скачать


 Зарегистрирован:   29 Июл 2012 13:43:00
 Размер:   1,04 GB  (
 Рейтинг:   4,6 (Голосов: 49)
 Поблагодарили:   143
 Проверка:   Оформление проверено модератором 30 Июл 2012 22:32:55
Как cкачать  ·  Как раздать  ·  Правильно оформить  ·  Поднять ратио!  
Synchronizer ®
Стаж: 6 лет 9 мес.
Сообщений: 372
Ratio: 8,038
Поблагодарили: 2826
66.81%
Откуда: атомная свалка
!
Показать сообщения:   
Начать новую тему   Ответить на тему    Торрент-трекер NNM-Club -> Мультимедиа и прочее -> Мобильное Видео Часовой пояс: GMT + 3
Страница 1 из 1