Классический форум-трекер
canvas not supported
Нас вместе: 4 079 176

Церемония открытия летних Олимпийских Игр. Лондон (2012) HDTV [H264 / 1080i]


Страницы:   Пред.  1, 2 
 
RSS
Начать новую тему   Ответить на тему    Торрент-трекер NNM-Club -> Спорт и активный отдых -> XXX Летние Олимпийские игры. Лондон 2012
Автор Сообщение
Altervint ®
Uploader 100+
Стаж: 8 лет 4 мес.
Сообщений: 782
Ratio: 618,538
Раздал: 132,1 TB
Поблагодарили: 23132
100%
Церемония открытия летних Олимпийских Игр. Лондон (2012) HDTV [H264 / 1080i]
Автор рипа: DeLL
Русское название: Церемония открытия летних Олимпийских Игр. Лондон. 2012
Телекомпания: Россия1
Год выпуска: 2012
Жанр: Спорт
Комментатор: Дмитрий Губерниев

Описание:
Главная церемония открытия игр Олимпиады 2012 в городе Лондоне будет начинаться с ударов в гигантский колокол. Известный кинорежиссер Бойл поведал, что во время работы над проектом церемонии открытия его вдохновляла известная пьеса «Буря» Уильяма Шекспира. На стадионе Олимпиады во время церемонии открытия будет «звучать гигантский колокол», сообщил режиссёр Бойл. Сам крупный колокол сделан по специальному заказу. Режиссер таких фильмов как «На игле» и фильм «Миллионер из трущоб» дал признание , что перед ним стояла очень сложная задача после прошедших церемоний торжественного открытия и закрытия Олимпийских Игр-2008 в городе Пекине.Кинорежиссер Бойл, имеющий в своём распоряжении бюджет в порядочные 96 миллионов евро, объяснил журналистам, что другие подробности он откроет позже.
«Шоу будет потрясающе эффектным, хоть мы и сделали сокращение расходов из-за общих мировых и внутренних проблем в экономике с финансами», — заявил Бойл.

Продолжительность: 3x ~01:10:00, 00:15:08
Доп. информация: Разделен на 4 части, Рекламы во время прямого эфира не было.

Видеокодек: MPEG-4 AVC/H.264
Битрейт видео: ~14300 kbps
Размер кадра: 1920x1080
Качество видео: HDTV
Аудиокодек: MP2, 2 сн
Битрейт аудио: 192.00 kbps
Общее
Идентификатор : 8900 (0x22C4)
Полное имя : G:\-С ТОРРЕНТОВ-\Церемония открытия XXX олимпийских игр.Лондон.27.07.2012.HDTV.1080i.Спорт1HD\Церемония открытия XXX олимпийских игр.Лондон.27.07.2012.HDTV.1080i.Спорт1HD.Часть №1.ts
Формат : MPEG-TS
Размер файла : 7,67 Гбайт
Продолжительность : 1 ч. 12 м.
Общий поток : 15,2 Мбит/сек

Видео
Идентификатор : 303 (0x12F)
Идентификатор меню : 20103 (0x4E87)
Формат : AVC
Формат/Информация : Advanced Video Codec
Профиль формата : High@L4.0
Параметр CABAC формата : Да
Параметр ReFrames формата : 3 кадра
Идентификатор кодека : 27
Продолжительность : 1 ч. 12 м.
Битрейт : 14,3 Мбит/сек
Ширина : 1920 пикселей
Высота : 1080 пикселей
Соотношение сторон : 16:9
Частота кадров : 25,000 кадров/сек
Стандарт вещания : Component
Цветовое пространство : YUV
Субдискретизация насыщенности : 4:2:0
Битовая глубина : 8 бит
Тип развёртки : Чересстрочная
Порядок развёртки : Верхнее поле первое
Бит/(Пиксели*Кадры) : 0.276
Размер потока : 7,20 Гбайт (94%)
Основные цвета : BT.709-5, BT.1361, IEC 61966-2-4, SMPTE RP177
Характеристики трансфера : BT.709-5, BT.1361
Коэффициенты матрицы : BT.709-5, BT.1361, IEC 61966-2-4 709, SMPTE RP177

Аудио
Идентификатор : 403 (0x193)
Идентификатор меню : 20103 (0x4E87)
Формат : MPEG Audio
Версия формата : Version 1
Профиль формата : Layer 2
Идентификатор кодека : 4
Продолжительность : 1 ч. 12 м.
Вид битрейта : Постоянный
Битрейт : 192 Кбит/сек
Каналы : 2 канала
Частота : 48,0 КГц
Метод сжатия : С потерями
Задержка видео : 84 мс.
Размер потока : 99,0 Мбайт (1%)
Язык : Russian
Скриншоты:




Время раздачи: 24/7 - по возможности.
[NNM-Club.ru]_TSeremoniya otkryitiya XXX olimpiyskih igr.London.27.07.2012.HDTV.1080i.Sport1HD.torrent
 Торрент: Платиновая раздача  Зарегистрирован
 
Скачать


Примагнититься
 Зарегистрирован:   28 Июл 2012 18:43:40
 Размер:   24,9 GB  (
 Рейтинг:   4,6 (Голосов: 80)
 Поблагодарили:   245
 Проверка:   Оформление проверено модератором 28 Июл 2012 19:52:25
Как cкачать  ·  Как раздать  ·  Правильно оформить  ·  Поднять ратио!  
Загрузка...
egrooz
Стаж: 8 лет 2 мес.
Сообщений: 166
Ratio: 3,308
100%
iraq.gif
спорт давно превратился в политику! не смотрю на этот пир во время чумы и вам не советую!
dimokmaloi
Стаж: 8 лет 5 мес.
Сообщений: 3
Ratio: 2,296
2.94%
**************
 !  Примечание от Microsoft SQL:
2.6. Где-либо в пределах форума-трекера публиковать в графическом либо текстовом виде рекламные сообщения; сообщения коммерческого характера; ссылки на сторонние ресурсы в рекламных целях.
Veterwar
Стаж: 9 лет 3 мес.
Сообщений: 53
Ratio: 0,852
100%
ukraine.gif
Самая гнилая олимпиада, что её смотреть
Yautja
Стаж: 13 лет
Сообщений: 174
Ratio: 1,672
Поблагодарили: 324
100%
Откуда: Москва
russia.gif
Друзья, а где бы найти трэклист музыки, которая играла в момент прохождения всех спорстменов? Уж очень там есть хорошие вещи...
Показать сообщения:   
Начать новую тему   Ответить на тему    Торрент-трекер NNM-Club -> Спорт и активный отдых -> XXX Летние Олимпийские игры. Лондон 2012 Часовой пояс: GMT + 3
Страницы:   Пред.  1, 2
Страница 2 из 2