Классический форум-трекер
canvas not supported
Нас вместе: 4 078 926

Олимпийские игры 2012. Лондон. Спортивная гимнастика. Женщины. Многоборье. Финал (2012) SATRip


 
 
RSS
Начать новую тему   Ответить на тему    Торрент-трекер NNM-Club -> Спорт и активный отдых -> XXX Летние Олимпийские игры. Лондон 2012
Автор Сообщение
ra3wa ®
Модератор Видео
RG Releasers
Uploader 100+
 
Стаж: 9 лет 3 мес.
Сообщений: 11985
Ratio: 7786,736
Раздал: 363,6 TB
Поблагодарили: 2289310
100%
Откуда: Воронеж
russia.gif
Олимпийские игры 2012. Лондон. Спортивная гимнастика. Женщины. Многоборье. Финал (2012) SATRip
Русское название: Олимпийские игры 2012. Лондон. Спортивная гимнастика. Женщины. Многоборье. Финал
Телекомпания: Россия, НТВ+ СПОРТ ПЛЮС
Комментатор: Дмитрий Борцов, Лидия Иванова
Год выпуска: 2012
Жанр: Спорт, спортивная гимнастика

Описание:
Спортивная гимнастика — вид спорта, включающий соревнования на гимнастических снарядах, в вольных упражнениях и в опорных прыжках. В современной программе гимнастического многоборья: для женщин — на брусьях разной высоты, бревне, в опорных прыжках, вольных упражнениях; для мужчин — в вольных упражнениях, опорных прыжках, на коне, кольцах, параллельных брусьях и перекладине.

Продолжительность: 02:17:15

Перевод: Не требуется

Видеокодек: Xvid
Битрейт видео: ~1779 Кбит/с
Размер кадра: 704x400
Качество видео: SATRip
Аудиокодек: MP3, 2ch
Битрейт аудио: 192 Кбит/с
Общее
Полное имя : C:\Justlan\Олимпийские игры 2012\Спорт гимнастика\Olimp.igry.Gimnastika.Zhen.Mnogoborje.fin.avi
Формат : AVI
Формат/Информация : Audio Video Interleave
Размер файла : 1,90 Гбайт
Продолжительность : 2 ч. 17 м.
Общий поток : 1981 Кбит/сек
Библиотека кодирования : Boilsoft AVI tool build 1/release

Видео
Идентификатор : 0
Формат : MPEG-4 Visual
Профиль формата : Advanced Simple@L5
Параметр BVOP формата : 2
Параметр QPel формата : Нет
Параметр GMC формата : Без точки перехода
Параметр матрицы формата : Default (H.263)
Режим смешивания : Сжатый битовый поток
Идентификатор кодека : XVID
Идентификатор кодека/Подсказка : XviD
Продолжительность : 2 ч. 17 м.
Битрейт : 1779 Кбит/сек
Ширина : 704 пикселя
Высота : 400 пикселей
Соотношение сторон : 16:9
Частота кадров : 25,000 кадров/сек
Цветовое пространство : YUV
Субдискретизация насыщенности : 4:2:0
Битовая глубина : 8 бит
Тип развёртки : Прогрессивная
Метод сжатия : С потерями
Бит/(Пиксели*Кадры) : 0.253
Размер потока : 1,71 Гбайт (90%)
Библиотека кодирования : XviD 64

Аудио
Идентификатор : 1
Формат : MPEG Audio
Версия формата : Version 1
Профиль формата : Layer 3
Режим : Joint stereo
Расширение режима : MS Stereo
Идентификатор кодека : 55
Идентификатор кодека/Подсказка : MP3
Продолжительность : 2 ч. 17 м.
Вид битрейта : Постоянный
Битрейт : 192 Кбит/сек
Каналы : 2 канала
Частота : 48,0 КГц
Метод сжатия : С потерями
Размер потока : 188 Мбайт (10%)
Выравнивание : Разделение по промежуткам
Продолжительность промежутка : 40 мс. (1,00 видеокадр)
Время предзагрузки промежутка : 500 мс.
Скриншоты:
Время раздачи: Круглосуточно до 10 скачавших
[NNM-Club.ru]_Olimp.igry.Gimnastika.Zhen.Mnogoborje.fin.avi.torrent
 Торрент: Золотая раздача  Зарегистрирован
 
Зарегистрируйтесь и скачайте торрент!
19,2 KB

Примагнититься
 Зарегистрирован:   08 Авг 2012 18:21:25
 Размер:   1,9 GB  (
 Рейтинг:   4,6 (Голосов: 10)
 Поблагодарили:   29
 Проверка:   Оформление проверено модератором 08 Авг 2012 22:15:49
Как cкачать  ·  Как раздать  ·  Правильно оформить  ·  Поднять ратио!  
Загрузка...
Показать сообщения:   
Начать новую тему   Ответить на тему    Торрент-трекер NNM-Club -> Спорт и активный отдых -> XXX Летние Олимпийские игры. Лондон 2012 Часовой пояс: GMT + 3
Страница 1 из 1