Классический форум-трекер
canvas not supported
Нас вместе: 4 114 173

Индиана Джонс: Квадрология / Indiana Jones: Quadrology (1981, 1984, 1989, 2008) [1080p] BDRip


Страницы:  1, 2  След. 
 
RSS
Начать новую тему   Ответить на тему    Торрент-трекер NNM-Club -> Коллекции / *логии -> Зарубежное кино (коллекции / *логии)
Автор Сообщение
Oops_Smile ®
Стаж: 10 лет 2 мес.
Сообщений: 1543
Ratio: 52,664
Раздал: 56,63 TB
Поблагодарили: 46927
100%
Откуда: Симферополь
Индиана Джонс: В поисках утраченного ковчега / Indiana Jones: Raiders of the Lost Ark (1981) [1080p] BDRip
Русское название: Индиана Джонс: В поисках утраченного ковчега
Оригинальное название: Raiders of the Lost Ark
Год выпуска: 1981
Жанр: боевик, приключения

Описание фильма:
Известный археолог и специалист по оккультным наукам доктор Джонс получает опасное задание от правительства США. Он должен отправиться на поиски уникальной реликвии — священного Ковчега. Но Индиана и не подозревает, что аналогичный приказ уже получили тайные агенты Адольфа Гитлера…
Этим потрясающим фильмом продюсер Джордж Лукас и режиссер Стивен Спилберг положили начало саги о странствиях благородного доктора Джонса по всевозможным уголкам земного шара.

Режиссер: Стивен Спилберг
Актеры: Харрисон Форд, Карен Аллен, Пол Фримен, Рональд Лейси, Джон Рис-Дэвис, Денхолм Эллиот, Альфред Молина, Вольф Калер, Энтони Хиггинс

Продолжительность: 01:55:18
Перевод: Профессиональный многоголосый, Авторский


Качество видео: BDRip
Аудиокодек: AC-3, DTS
Bидео: MPEG 4 AVC/H.264 / 1920x816, 23.976 fps, ~14800 kb/s
Аудио# 1: Русский: AC3, 3/2 ch, ~ 384 kb/s |Многоголосый, Киномания|
Аудио# 2: Русский: AC3, 3/2 ch, ~ 448 kb/s |Многоголосый, НТВ|
Аудио# 3: Русский: AC3, 3/2 ch, ~ 448 kb/s |Двухголосый, П.Гланц и Е.Лютая|
Аудио# 4: Русский: AC3, 3/2 ch, ~ 384 kb/s |Одноголосый закадровый, А.Гаврилов|
Аудио# 5: Русский: AC3, 3/2 ch, ~ 448 kb/s |Одноголосый закадровый, Михалев|
Аудио# 6: Русский: AC3, 2/0 ch, ~ 192 kb/s |Одноголосый закадровый, Горчаков|
Аудио# 7: Русский: AC3, 2/0 ch, ~ 192 kb/s |Одноголосый закадровый, Живов|
Аудио# 8: Русский: AC3, 2/0 ch, ~ 192 kb/s |Одноголосый закадровый, Володарский|
Аудио# 9: Украинский: AC3, 3/2 ch, ~ 384 kb/s |Дубляж|
Аудио# 10: Английский: DTS, 5.1 / 48 kHz / 1510 kb/s
Субтитры: Английский, Русский
Скриншоты:





Формат : Matroska
Версия формата : Version 2
Размер файла : 15,4 Гбайт
Продолжительность : 1 ч. 55 м.
Общий поток : 19,2 Мбит/сек
Дата кодирования : UTC 2012-09-11 10:06:19
Программа кодирования : mkvmerge v5.8.0 ('No Sleep / Pillow') built on Sep 2 2012 15:37:04
Библиотека кодирования : libebml v1.2.3 + libmatroska v1.3.0

Видео
Идентификатор : 1
Формат : AVC
Формат/Информация : Advanced Video Codec
Профиль формата : High@L4.1
Параметр CABAC формата : Да
Параметр ReFrames формата : 4 кадра
Идентификатор кодека : V_MPEG4/ISO/AVC
Продолжительность : 1 ч. 55 м.
Битрейт : 14,8 Мбит/сек
Ширина : 1920 пикселей
Высота : 816 пикселей
Соотношение сторон : 2,35:1
Частота кадров : 23,976 кадра/сек
Цветовое пространство : YUV
Субдискретизация насыщенности : 4:2:0
Битовая глубина : 8 бит
Тип развёртки : Прогрессивная
Бит/(Пиксели*Кадры) : 0.395
Размер потока : 11,4 Гбайт (74%)
Библиотека кодирования : x264 core 125 r2200 999b753
Настройки программы : cabac=1 / ref=5 / deblock=1:-3:-3 / analyse=0x3:0x133 / me=umh / subme=9 / psy=1 / psy_rd=1.00:0.15 / mixed_ref=1 / me_range=32 / chroma_me=1 / trellis=2 / 8x8dct=1 / cqm=0 / deadzone=21,11 / fast_pskip=1 / chroma_qp_offset=-3 / threads=12 / lookahead_threads=2 / sliced_threads=0 / nr=0 / decimate=1 / interlaced=0 / bluray_compat=0 / constrained_intra=0 / bframes=4 / b_pyramid=1 / b_adapt=2 / b_bias=0 / direct=3 / weightb=1 / open_gop=0 / weightp=2 / keyint=240 / keyint_min=23 / scenecut=40 / intra_refresh=0 / rc_lookahead=60 / rc=abr / mbtree=1 / bitrate=14845 / ratetol=1.0 / qcomp=0.60 / qpmin=0 / qpmax=69 / qpstep=4 / ip_ratio=1.40 / aq=1:1.00
Язык : English
Default : Да
Forced : Нет

Аудио #1
Идентификатор : 2
Формат : AC-3
Формат/Информация : Audio Coding 3
Расширение режима : CM (complete main)
Параметр Endianness формата : Big
Идентификатор кодека : A_AC3
Продолжительность : 1 ч. 55 м.
Вид битрейта : Постоянный
Битрейт : 384 Кбит/сек
Каналы : 6 каналов
Расположение каналов : Front: L C R, Side: L R, LFE
Частота : 48,0 КГц
Битовая глубина : 16 бит
Метод сжатия : С потерями
Размер потока : 317 Мбайт (2%)
Заголовок : Киномания
Язык : Russian
Default : Да
Forced : Нет

Аудио #2
Идентификатор : 3
Формат : AC-3
Формат/Информация : Audio Coding 3
Расширение режима : CM (complete main)
Параметр Endianness формата : Big
Идентификатор кодека : A_AC3
Продолжительность : 1 ч. 55 м.
Вид битрейта : Постоянный
Битрейт : 448 Кбит/сек
Каналы : 6 каналов
Расположение каналов : Front: L C R, Side: L R, LFE
Частота : 48,0 КГц
Битовая глубина : 16 бит
Метод сжатия : С потерями
Размер потока : 370 Мбайт (2%)
Заголовок : НТВ+
Язык : Russian
Default : Нет
Forced : Нет

Аудио #3
Идентификатор : 4
Формат : AC-3
Формат/Информация : Audio Coding 3
Расширение режима : CM (complete main)
Параметр Endianness формата : Big
Идентификатор кодека : A_AC3
Продолжительность : 1 ч. 55 м.
Вид битрейта : Постоянный
Битрейт : 448 Кбит/сек
Каналы : 6 каналов
Расположение каналов : Front: L C R, Side: L R, LFE
Частота : 48,0 КГц
Битовая глубина : 16 бит
Метод сжатия : С потерями
Размер потока : 370 Мбайт (2%)
Заголовок : П.Гланц и Е.Лютая
Язык : Russian
Default : Нет
Forced : Нет

Аудио #4
Идентификатор : 5
Формат : AC-3
Формат/Информация : Audio Coding 3
Расширение режима : CM (complete main)
Параметр Endianness формата : Big
Идентификатор кодека : A_AC3
Продолжительность : 1 ч. 55 м.
Вид битрейта : Постоянный
Битрейт : 384 Кбит/сек
Каналы : 6 каналов
Расположение каналов : Front: L C R, Side: L R, LFE
Частота : 48,0 КГц
Битовая глубина : 16 бит
Метод сжатия : С потерями
Размер потока : 317 Мбайт (2%)
Заголовок : Гаврилов
Язык : Russian
Default : Нет
Forced : Нет

Аудио #5
Идентификатор : 6
Формат : AC-3
Формат/Информация : Audio Coding 3
Расширение режима : CM (complete main)
Параметр Endianness формата : Big
Идентификатор кодека : A_AC3
Продолжительность : 1 ч. 55 м.
Вид битрейта : Постоянный
Битрейт : 448 Кбит/сек
Каналы : 6 каналов
Расположение каналов : Front: L C R, Side: L R, LFE
Частота : 48,0 КГц
Битовая глубина : 16 бит
Метод сжатия : С потерями
Размер потока : 370 Мбайт (2%)
Заголовок : Михалев
Язык : Russian
Default : Нет
Forced : Нет

Аудио #6
Идентификатор : 7
Формат : AC-3
Формат/Информация : Audio Coding 3
Расширение режима : CM (complete main)
Параметр Endianness формата : Big
Идентификатор кодека : A_AC3
Продолжительность : 1 ч. 55 м.
Вид битрейта : Постоянный
Битрейт : 192 Кбит/сек
Каналы : 2 канала
Расположение каналов : Front: L R
Частота : 48,0 КГц
Битовая глубина : 16 бит
Метод сжатия : С потерями
Размер потока : 158 Мбайт (1%)
Заголовок : Горчаков
Язык : Russian
Default : Нет
Forced : Нет

Аудио #7
Идентификатор : 8
Формат : AC-3
Формат/Информация : Audio Coding 3
Расширение режима : CM (complete main)
Параметр Endianness формата : Big
Идентификатор кодека : A_AC3
Продолжительность : 1 ч. 55 м.
Вид битрейта : Постоянный
Битрейт : 192 Кбит/сек
Каналы : 2 канала
Расположение каналов : Front: L R
Частота : 48,0 КГц
Битовая глубина : 16 бит
Метод сжатия : С потерями
Размер потока : 158 Мбайт (1%)
Заголовок : Живов
Язык : Russian
Default : Нет
Forced : Нет

Аудио #8
Идентификатор : 9
Формат : AC-3
Формат/Информация : Audio Coding 3
Расширение режима : CM (complete main)
Параметр Endianness формата : Big
Идентификатор кодека : A_AC3
Продолжительность : 1 ч. 55 м.
Вид битрейта : Постоянный
Битрейт : 192 Кбит/сек
Каналы : 2 канала
Расположение каналов : Front: L R
Частота : 48,0 КГц
Битовая глубина : 16 бит
Метод сжатия : С потерями
Размер потока : 158 Мбайт (1%)
Заголовок : Володарский
Язык : Russian
Default : Нет
Forced : Нет

Аудио #9
Идентификатор : 10
Формат : AC-3
Формат/Информация : Audio Coding 3
Расширение режима : CM (complete main)
Параметр Endianness формата : Big
Идентификатор кодека : A_AC3
Продолжительность : 1 ч. 55 м.
Вид битрейта : Постоянный
Битрейт : 384 Кбит/сек
Каналы : 6 каналов
Расположение каналов : Front: L C R, Side: L R, LFE
Частота : 48,0 КГц
Битовая глубина : 16 бит
Метод сжатия : С потерями
Размер потока : 317 Мбайт (2%)
Заголовок : ICTV
Язык : Ukrainian
Default : Нет
Forced : Нет

Аудио #10
Идентификатор : 11
Формат : DTS
Формат/Информация : Digital Theater Systems
Идентификатор кодека : A_DTS
Продолжительность : 1 ч. 55 м.
Вид битрейта : Постоянный
Битрейт : 1510 Кбит/сек
Каналы : 6 каналов
Расположение каналов : Front: L C R, Side: L R, LFE
Частота : 48,0 КГц
Битовая глубина : 24 бит
Метод сжатия : С потерями
Размер потока : 1,22 Гбайт (8%)
Язык : English
Default : Нет
Forced : Нет

Текст #1
Идентификатор : 12
Формат : UTF-8
Идентификатор кодека : S_TEXT/UTF8
Идентификатор кодека/Информация : UTF-8 Plain Text
Язык : Russian
Default : Да
Forced : Нет

Текст #2
Идентификатор : 13
Формат : UTF-8
Идентификатор кодека : S_TEXT/UTF8
Идентификатор кодека/Информация : UTF-8 Plain Text
Язык : English
Default : Нет
Forced : Нет

Текст #3
Идентификатор : 14
Формат : UTF-8
Идентификатор кодека : S_TEXT/UTF8
Идентификатор кодека/Информация : UTF-8 Plain Text
Язык : English
Default : Нет
Forced : Нет

Меню
00:00:00.000 : en:00:00:00.000
00:03:16.530 : en:00:03:16.530
00:05:44.636 : en:00:05:44.636
00:09:51.132 : en:00:09:51.132
00:12:49.352 : en:00:12:49.352
00:15:23.631 : en:00:15:23.631
00:20:27.435 : en:00:20:27.435
00:22:58.419 : en:00:22:58.419
00:28:51.355 : en:00:28:51.355
00:33:42.395 : en:00:33:42.395
00:36:23.390 : en:00:36:23.390
00:40:04.819 : en:00:40:04.819
00:42:16.159 : en:00:42:16.159
00:46:41.507 : en:00:46:41.507
00:49:32.928 : en:00:49:32.928
00:51:00.933 : en:00:51:00.933
00:55:11.141 : en:00:55:11.141
00:58:33.218 : en:00:58:33.218
01:03:05.740 : en:01:03:05.740
01:08:26.144 : en:01:08:26.144
01:10:25.346 : en:01:10:25.346
01:15:33.154 : en:01:15:33.154
01:22:24.356 : en:01:22:24.356
01:25:43.764 : en:01:25:43.764
01:29:57.517 : en:01:29:57.517
01:34:30.665 : en:01:34:30.665
01:38:06.172 : en:01:38:06.172
01:41:06.060 : en:01:41:06.060
01:44:06.824 : en:01:44:06.824
01:47:01.415 : en:01:47:01.415
01:49:05.998 : en:01:49:05.998
Идея фильма созрела у Джорджа Лукаса и Стивена Спилберга во время отпуска на Гавайах. Как-то они строили на пляже замок из песка и вдруг решили сделать приключенческий фильм на основе телесериалов 40-х годов. В итоге они начали работать над сценарием вместе с Лоуренсом Кэзданом.
Идея поиска потерянного ковчега принадлежала Филипу Кауфману, который в 70-х годах придумал сюжет вместе с Джорджем Лукасом. Тогда планировалось, что режиссером будущей картины станет Кауфман.
На роль Индианы Джонса был первоначально выбран Том Селлек, но тот был связан с телесериалом «Магнум», в одном из эпизодов которого впоследствии был спародирован герой Харрисона Форда. По иронии судьбы съемки «Магнума» начались после того, как Спилберг завершил работу над фильмом.
Любопытно, что для Стивена Спилберга Том Селлек был кандидатом N 2, поскольку режиссер с самого начала хотел взять на роль Индианы Харрисона Форда. Против этого возражал продюсер фильма Джордж Лукас, у которого Форд ранее снялся в картинах «Американские граффити» (1973) и «Звездные войны» (1977).
От роли Индианы Джонса отказался Ник Нолти. В качестве кандидата значился Тим Мэтисон.
На роль Мэрион пробовалась Шон Янг. Также рассматривались кандидатуры Эми Ирвинг и Дебры Уингер.
Спилберг хотел, чтобы Саллаха сыграл Дэнни ДеВито, но тот не смог сниматься, поскольку был занят в то время в телесериале «Такси».
В своей книге «Кински без купюр» Клаус Кински пишет, что Спилберг предложил ему роль в этом фильме, но он отказался, так как ему не понравился сценарий.
Прежде чем взять на роль доктора Рене Беллока Пола Фримана, Спилберг рассматривал кандидатуры Джианкарло Джианнини и Жака Дютронка.
Сцена, в которой Индиана Джонс хочет взорвать ковчег, выстрелив из базуки, снималась в Тунисе, в том же каньоне, где проходили съемки «Звездных войн» (1977).
В процессе подготовки к съемкам сцены в Колодце душ создатели ленты скупили всех змей, продававшихся в зоомагазинах Лондона и Южной Англии. Тем не менее, Спилбергу все равно не хватало змей, и поэтому пришлось сделать из шлангов их имитацию. Если внимательно вглядеться, то можно увидеть, какие змеи настоящие, а какие — подделка.
В сценарии главного героя зовут Индиана Смит. Фамилию Джонс он получил в первый день съемок.
Во время съемок в Тунисе переболели практически все актеры и члены съемочной группы, за исключением Стивена Спилберга, который в отличии от других питался только тем, что захватил с собой (в основном это были консервированные спагетти).
Регистрационный номер самолета Джока — ОВ-СРО. В этих обозначениях использованы имена персонажей «Звездных войн»: Оби-вана и C-3PO.
В картине есть отсылка к первому фильму Спилберга «Дуэль» (1971). В сцене, где Индиана смотрит в зеркало заднего вида на едущий сзади нацистский грузовик, кажется, что в нем нет водителя.
Эпизод, в котором обезьянка поднимает лапку и на своем языке произносит «Хайль Гитлер», была придумана Джорджем Лукасом.
Сцена в Каире, где Индиана стреляет из револьвера в размахивающего саблей араба, задумывалась вначале как сложнопостановочный поединок, в котором Джонс, используя в качестве оружия хлыст, должен был сражаться с человеком, готовым нанести ему удар саблей. Харрисон Форд, страдавший в то время от дизентерии после трех месяцев съемок в Тунисе, был не в состоянии еще три дня сниматься в этом эпизоде, требующем больших физических усилий. Поэтому он и предложил более короткий и простой вариант. В некоторых источниках утверждается, что это была идея Спилберга.
В списке 100 лучших американских фильмов XX века, составленном Американским киноинститутом, эта лента заняла 60-е место.
Продюсер фильма Фрэнк Маршалл играет роль пилота, а Мэрион пытается его сразить.
В сцене, где Индиана убегает от гигантского камня, Харрисон Форд работал без дублера. Шар был сделан из стеклопластика и весил около центнера.
События фильма разворачиваются в 1936 году, однако нацисты и их наемники используют пистолет-пулемёты МП-40 и пистолеты Вальтер П-38, в то время как это оружие поступило на вооружение Вермахта не раньше 1938 года.
На карте перелёта Инди из США в Непал находится Таиланд. Но до 1949 года это государство называлось «Сиам».
На карте следующего перелёта присутствует государство Иран. Однако, хотя это название стало официальным ещё в 1935 году, на картах многие годы значилось «Персия».
Маршрут первого перелёта Инди таков: Лос-Анджелес, США — Гавайи — остров Уэйк — Манила, Филиппины — Непал. Последний этап слишком большой — в 1936 году ни один самолет не мог совершить подобного перелёта без дозаправки.
Египет в 1936 году контролировала Великобритания. Таким образом, нацисты не могли проводить столь мощную военную операцию, как показано в картине.
На глобусе в классе доктора Джонса видна Африка со странами, которых не существовало в 1936 году.
Когда Инди угрожает уничтожить Ковчег, он держит в руках РПГ-7, принятый на вооружение СССР лишь в 1961 году.


Индиана Джонс и Храм Судьбы / Indiana Jones and the Temple of Doom (1984) [1080p] BDRip
Русское название: Индиана Джонс и Храм Судьбы
Оригинальное название: Indiana Jones and the Temple of Doom
Год выпуска: 1984
Жанр: боевик, приключения

Описание фильма:
Вторая часть невероятных похождений прославленного археолога и искателя приключений Индианы Джонса. В этот раз бесстрашный доктор Джонс совершит путешествие в сердце Гималаев вместе с ресторанной певичкой Уилли Скотт и своим верным маленьким помощником Коротышкой.
Здесь, среди величественных гор, археологу и его спутникам предстоит столкнуться кровавым культом поклонения древней Богине Смерти — Кали. Станет ли Индиана следующим несчастным, погибшим на жутком алтаре человеческих жертвоприношений, или ему, как всегда, удастся вырваться из цепких лап страха и разобраться со злодеями.

Режиссер: Стивен Спилберг
Актеры: Харрисон Форд, Кейт Кэпшоу, Ки Хай Куан, Эмриш Пьюри, Рошан Сет, Филип Стоун, Дэн Эйкройд

Продолжительность: 01:58:28
Перевод: Профессиональный многоголосый, Авторский, Дублированный


Качество видео: BDRip
Аудиокодек: AC-3, DTS
Bидео: MPEG 4 AVC/H.264 / 1920x816, 23.976 fps, ~12500 kb/s
Аудио# 1: Русский: AC3, 3/2 ch, ~ 384 kb/s |Многоголосый, Киномания|
Аудио# 2: Русский: AC3, 3/2 ch, ~ 448 kb/s |Многоголосый, НТВ|
Аудио# 3: Русский: AC3, 3/2 ch, ~ 448 kb/s |Двухголосый, П.Гланц и Е.Лютая|
Аудио# 4: Русский: AC3, 3/2 ch, ~ 448 kb/s |Одноголосый закадровый, Михалев|
Аудио# 5: Русский: AC3, 3/2 ch, ~ 448 kb/s |Одноголосый закадровый, А.Гаврилов|
Аудио# 6: Украинский: AC3, 3/2 ch, ~ 384 kb/s |Дубляж|
Аудио# 7: Английский: DTS, 5.1 ch, 48 kHz, ~1510 kb/s
Субтитры: Английский, Русский
Скриншоты:




Формат : Matroska
Версия формата : Version 2
Размер файла : 14,0 Гбайт
Продолжительность : 1 ч. 58 м.
Общий поток : 16,9 Мбит/сек
Дата кодирования : UTC 2012-09-11 20:39:38
Программа кодирования : mkvmerge v5.8.0 ('No Sleep / Pillow') built on Sep 2 2012 15:37:04
Библиотека кодирования : libebml v1.2.3 + libmatroska v1.3.0

Видео
Идентификатор : 1
Формат : AVC
Формат/Информация : Advanced Video Codec
Профиль формата : High@L4.1
Параметр CABAC формата : Да
Параметр ReFrames формата : 4 кадра
Идентификатор кодека : V_MPEG4/ISO/AVC
Продолжительность : 1 ч. 58 м.
Битрейт : 12,5 Мбит/сек
Номинальный битрейт : 13,2 Мбит/сек
Ширина : 1920 пикселей
Высота : 816 пикселей
Соотношение сторон : 2,35:1
Частота кадров : 23,976 кадра/сек
Цветовое пространство : YUV
Субдискретизация насыщенности : 4:2:0
Битовая глубина : 8 бит
Тип развёртки : Прогрессивная
Бит/(Пиксели*Кадры) : 0.333
Размер потока : 10,3 Гбайт (74%)
Библиотека кодирования : x264 core 125 r2200 999b753
Настройки программы : cabac=1 / ref=5 / deblock=1:-3:-3 / analyse=0x3:0x133 / me=umh / subme=7 / psy=1 / psy_rd=1.00:0.00 / mixed_ref=1 / me_range=32 / chroma_me=1 / trellis=2 / 8x8dct=1 / cqm=0 / deadzone=21,11 / fast_pskip=1 / chroma_qp_offset=-2 / threads=12 / lookahead_threads=2 / sliced_threads=0 / nr=0 / decimate=1 / interlaced=0 / bluray_compat=0 / constrained_intra=0 / bframes=3 / b_pyramid=1 / b_adapt=2 / b_bias=0 / direct=3 / weightb=1 / open_gop=0 / weightp=2 / keyint=240 / keyint_min=23 / scenecut=40 / intra_refresh=0 / rc_lookahead=60 / rc=abr / mbtree=1 / bitrate=13178 / ratetol=1.0 / qcomp=0.60 / qpmin=0 / qpmax=69 / qpstep=4 / ip_ratio=1.40 / aq=1:1.00
Язык : English
Default : Да
Forced : Нет

Аудио #1
Идентификатор : 2
Формат : AC-3
Формат/Информация : Audio Coding 3
Расширение режима : CM (complete main)
Параметр Endianness формата : Big
Идентификатор кодека : A_AC3
Продолжительность : 1 ч. 58 м.
Вид битрейта : Постоянный
Битрейт : 384 Кбит/сек
Каналы : 6 каналов
Расположение каналов : Front: L C R, Side: L R, LFE
Частота : 48,0 КГц
Битовая глубина : 16 бит
Метод сжатия : С потерями
Размер потока : 325 Мбайт (2%)
Заголовок : Киномания
Язык : Russian
Default : Да
Forced : Нет

Аудио #2
Идентификатор : 3
Формат : AC-3
Формат/Информация : Audio Coding 3
Расширение режима : CM (complete main)
Параметр Endianness формата : Big
Идентификатор кодека : A_AC3
Продолжительность : 1 ч. 58 м.
Вид битрейта : Постоянный
Битрейт : 448 Кбит/сек
Каналы : 6 каналов
Расположение каналов : Front: L C R, Side: L R, LFE
Частота : 48,0 КГц
Битовая глубина : 16 бит
Метод сжатия : С потерями
Размер потока : 380 Мбайт (3%)
Заголовок : НТВ+
Язык : Russian
Default : Нет
Forced : Нет

Аудио #3
Идентификатор : 4
Формат : AC-3
Формат/Информация : Audio Coding 3
Расширение режима : CM (complete main)
Параметр Endianness формата : Big
Идентификатор кодека : A_AC3
Продолжительность : 1 ч. 58 м.
Вид битрейта : Постоянный
Битрейт : 448 Кбит/сек
Каналы : 6 каналов
Расположение каналов : Front: L C R, Side: L R, LFE
Частота : 48,0 КГц
Битовая глубина : 16 бит
Метод сжатия : С потерями
Размер потока : 380 Мбайт (3%)
Заголовок : П.Гланц и Е.Лютая
Язык : Russian
Default : Нет
Forced : Нет

Аудио #4
Идентификатор : 5
Формат : AC-3
Формат/Информация : Audio Coding 3
Расширение режима : CM (complete main)
Параметр Endianness формата : Big
Идентификатор кодека : A_AC3
Продолжительность : 1 ч. 58 м.
Вид битрейта : Постоянный
Битрейт : 448 Кбит/сек
Каналы : 6 каналов
Расположение каналов : Front: L C R, Side: L R, LFE
Частота : 48,0 КГц
Битовая глубина : 16 бит
Метод сжатия : С потерями
Размер потока : 380 Мбайт (3%)
Заголовок : Гаврилов
Язык : Russian
Default : Нет
Forced : Нет

Аудио #5
Идентификатор : 6
Формат : AC-3
Формат/Информация : Audio Coding 3
Расширение режима : CM (complete main)
Параметр Endianness формата : Big
Идентификатор кодека : A_AC3
Продолжительность : 1 ч. 58 м.
Вид битрейта : Постоянный
Битрейт : 448 Кбит/сек
Каналы : 6 каналов
Расположение каналов : Front: L C R, Side: L R, LFE
Частота : 48,0 КГц
Битовая глубина : 16 бит
Метод сжатия : С потерями
Размер потока : 380 Мбайт (3%)
Заголовок : Михалёв
Язык : Russian
Default : Нет
Forced : Нет

Аудио #6
Идентификатор : 7
Формат : AC-3
Формат/Информация : Audio Coding 3
Расширение режима : CM (complete main)
Параметр Endianness формата : Big
Идентификатор кодека : A_AC3
Продолжительность : 1 ч. 58 м.
Вид битрейта : Постоянный
Битрейт : 384 Кбит/сек
Каналы : 6 каналов
Расположение каналов : Front: L C R, Side: L R, LFE
Частота : 48,0 КГц
Битовая глубина : 16 бит
Метод сжатия : С потерями
Размер потока : 325 Мбайт (2%)
Заголовок : Студия ТВ+
Язык : Ukrainian
Default : Нет
Forced : Нет

Аудио #7
Идентификатор : 8
Формат : DTS
Формат/Информация : Digital Theater Systems
Идентификатор кодека : A_DTS
Продолжительность : 1 ч. 58 м.
Вид битрейта : Постоянный
Битрейт : 1510 Кбит/сек
Каналы : 6 каналов
Расположение каналов : Front: L C R, Side: L R, LFE
Частота : 48,0 КГц
Битовая глубина : 24 бит
Метод сжатия : С потерями
Размер потока : 1,25 Гбайт (9%)
Язык : English
Default : Нет
Forced : Нет

Текст #1
Идентификатор : 9
Формат : UTF-8
Идентификатор кодека : S_TEXT/UTF8
Идентификатор кодека/Информация : UTF-8 Plain Text
Язык : Russian
Default : Да
Forced : Нет

Текст #2
Идентификатор : 10
Формат : UTF-8
Идентификатор кодека : S_TEXT/UTF8
Идентификатор кодека/Информация : UTF-8 Plain Text
Язык : English
Default : Нет
Forced : Нет

Текст #3
Идентификатор : 11
Формат : UTF-8
Идентификатор кодека : S_TEXT/UTF8
Идентификатор кодека/Информация : UTF-8 Plain Text
Язык : English
Default : Нет
Forced : Нет
В начальных сценах фильма Харрисон Форд подражает Хэмфри Богарту.
В фильме присутствует ресторан «Оби Ван». В фильме Звёздные войны, откуда взят этот джедай-персонаж, Харрисон Форд играл Хана Соло.
Вместо аэроплана хотели снять гонку на мотоциклах по Великой Стене. Но китайское правительство сочло это кощунством.
Звук гремящих по рельсам вагонеток был записан в Диснейленде.
Роль замороженных обезьяньих мозгов исполнили малиновый соус и заварной крем.
Деревенский шаман рассказывал Индиане про камень Шанкары, называя его «Шива Линга». В индуистской традиции лингой называется высокий камень цилиндрической формы, напоминающий фаллос. Его часто помещают внутрь круга, символизирующего юни. Вместе эти символы обозначают дуалистическую сексуальную энергию бога Шивы.
Аллигаторов снимал продюсер Фрэнк Маршалл лично. Он нашел их во Флориде.
Харрисон Форд повредил спину во время драки с ассассином. Ему даже пришлось слетать в Лос-Анджелес на операцию. Впоследствии большинство трюков за Форда выполнял каскадер Вик Армстронг.
Во второй раз Форд повредил спину, когда сражался с медведем. Особенно обидно, что эта сцена впоследствии была вырезана.
Во время съемок веревочного моста большинство кадров было сделано либо с начала моста, либо с его конца, потому что и Спилберг, и оператор панически боялись лезть на середину.
Рабочее название фильма — «Индиана Джонс и Храм Смерти».
Поскольку сценарист «Искателей потерянного ковчега» Лоуренс Каздан был занят постановкой фильма «Большая прохлада» (1983), Лукас нанял сценаристов Уилларда Хайка и Глорию Кац, с которыми работал над «Американскими граффити». Лукас хотел, чтобы сиквел «Индианы Джонсом» получился более мрачным (примерно таким же, как «Империя наносит ответный удар» по сравнению с «Новой надеждой»).
«Индиана Джонс и Храм Судьбы» стал первым фильмом в новой программе THX`s Theatre Alignment Program, придуманной Джорджем Лукасом для стандартизации звука в кинотеатрах.
Фильм снимался в Америке, Англии, Шри-Ланке и Китае. Индийское правительство не разрешило снимать фильм, так как продюсеры отказались дать им копию сценария для цензурной проверки, а также не пожелали убрать слово «махараджа».
Продюсеры фильма, Джордж Лукас и Фрэнк Маршалл, появляются в камео в начале фильма (сцена в аэропорту). Первый — священник, второй — турист. Кроме того, Спилберг отблагодарил Дэна Эйкройда за свое камео в «Братьях Блюз», — Эйкройд также появляется в аэропорту.
Веревочный мост в конце фильма был самый настоящий. Спилберг никогда не пересекал его. Чтобы попасть на другую сторону он ехал окольным путем длиной в полторы мили.
Для съемок гонки на вагонетках использовались модели и модифицированная специально под эти нужды 35-миллиметровая камера.
До появления на пробах Кейт Кэпшоу главной кандидатурой на роль Вилли была Шэрон Стоун.


Индиана Джонс и последний крестовый поход / Indiana Jones and the Last Crusade (1989) [1080p] BDRip
Русское название: Индиана Джонс и последний крестовый поход
Оригинальное название: Indiana Jones and the Last Crusade
Год выпуска: 1989
Жанр: боевик, приключения

Описание фильма:
Третья часть невероятных похождений прославленного археолога и искателя приключений Индианы Джонса. На этот раз бесстрашный Индиана разыскивает самую таинственную реликвию в истории человечества — Святой Грааль. В этом археологу помогает его отец — профессор Джонс старший.
Теперь под бдительным оком своего отца и при помощи своих верных талисманов, неизменной шляпы и хлыста, Индиане предстоит совершить много благородных подвигов и потрясающих открытий. В новых странствиях храброму археологу доведется добыть чашу, которую держал в руках Иисус Христос и получить автограф… самого Адольфа Гитлера.

Режиссер: Стивен Спилберг
Актеры: Харрисон Форд, Шон Коннери, Денхолм Эллиотт, Элисон Дуди, Джулиэн Гловер, Джон Рис-Дэвис

Продолжительность: 02:06:53
Перевод: Профессиональный многоголосый, Авторский, Дублированный


Качество видео: BDRip
Аудиокодек: AC-3, DTS
Bидео: MPEG 4 AVC/H.264 / 1920x816, 23.976 fps, ~12500 kb/s
Аудио# 1: Русский: AC3, 3/2 ch, ~ 384 kb/s |Многоголосый, Киномания|
Аудио# 2: Русский: AC3, 3/2 ch, ~ 448 kb/s |Многоголосый, НТВ|
Аудио# 3: Русский: AC3, 3/2 ch, ~ 448 kb/s |Двухголосый, П.Гланц и Е.Лютая|
Аудио# 4: Русский: AC3, 3/2 ch, ~ 448 kb/s |Одноголосый закадровый, Михалев|
Аудио# 5: Русский: AC3, 3/2 ch, ~ 448 kb/s |Одноголосый закадровый, А.Гаврилов|
Аудио# 6: Украинский: AC3, 3/2 ch, ~ 384 kb/s |Дубляж|
Аудио# 7: Английский: DTS, 5.1 ch, 48 kHz, ~1510 kb/s
Субтитры: Английский, Русский
Скриншоты:




Формат : Matroska
Версия формата : Version 2
Размер файла : 14,6 Гбайт
Продолжительность : 2 ч. 6 м.
Общий поток : 16,5 Мбит/сек
Дата кодирования : UTC 2012-09-14 05:31:26
Программа кодирования : mkvmerge v5.8.0 ('No Sleep / Pillow') built on Sep 2 2012 15:37:04
Библиотека кодирования : libebml v1.2.3 + libmatroska v1.3.0

Видео
Идентификатор : 1
Формат : AVC
Формат/Информация : Advanced Video Codec
Профиль формата : High@L4.1
Параметр CABAC формата : Да
Параметр ReFrames формата : 4 кадра
Идентификатор кодека : V_MPEG4/ISO/AVC
Продолжительность : 2 ч. 6 м.
Битрейт : 12,5 Мбит/сек
Ширина : 1920 пикселей
Высота : 816 пикселей
Соотношение сторон : 2,35:1
Частота кадров : 23,976 кадра/сек
Цветовое пространство : YUV
Субдискретизация насыщенности : 4:2:0
Битовая глубина : 8 бит
Тип развёртки : Прогрессивная
Бит/(Пиксели*Кадры) : 0.332
Размер потока : 10,7 Гбайт (73%)
Библиотека кодирования : x264 core 125 r2200 999b753
Настройки программы : cabac=1 / ref=5 / deblock=1:-3:-3 / analyse=0x3:0x133 / me=umh / subme=7 / psy=1 / psy_rd=1.00:0.00 / mixed_ref=1 / me_range=32 / chroma_me=1 / trellis=2 / 8x8dct=1 / cqm=0 / deadzone=21,11 / fast_pskip=1 / chroma_qp_offset=-2 / threads=12 / lookahead_threads=2 / sliced_threads=0 / nr=0 / decimate=1 / interlaced=0 / bluray_compat=0 / constrained_intra=0 / bframes=3 / b_pyramid=1 / b_adapt=2 / b_bias=0 / direct=3 / weightb=1 / open_gop=0 / weightp=2 / keyint=240 / keyint_min=23 / scenecut=40 / intra_refresh=0 / rc_lookahead=60 / rc=abr / mbtree=1 / bitrate=12457 / ratetol=1.0 / qcomp=0.60 / qpmin=0 / qpmax=69 / qpstep=4 / ip_ratio=1.40 / aq=1:1.00
Язык : English
Default : Да
Forced : Нет

Аудио #1
Идентификатор : 2
Формат : AC-3
Формат/Информация : Audio Coding 3
Расширение режима : CM (complete main)
Параметр Endianness формата : Big
Идентификатор кодека : A_AC3
Продолжительность : 2 ч. 6 м.
Вид битрейта : Постоянный
Битрейт : 384 Кбит/сек
Каналы : 6 каналов
Расположение каналов : Front: L C R, Side: L R, LFE
Частота : 48,0 КГц
Битовая глубина : 16 бит
Метод сжатия : С потерями
Размер потока : 349 Мбайт (2%)
Заголовок : Киномания
Язык : Russian
Default : Да
Forced : Нет

Аудио #2
Идентификатор : 3
Формат : AC-3
Формат/Информация : Audio Coding 3
Расширение режима : CM (complete main)
Параметр Endianness формата : Big
Идентификатор кодека : A_AC3
Продолжительность : 2 ч. 6 м.
Вид битрейта : Постоянный
Битрейт : 448 Кбит/сек
Каналы : 6 каналов
Расположение каналов : Front: L C R, Side: L R, LFE
Частота : 48,0 КГц
Битовая глубина : 16 бит
Метод сжатия : С потерями
Размер потока : 407 Мбайт (3%)
Заголовок : НТВ+
Язык : Russian
Default : Нет
Forced : Нет

Аудио #3
Идентификатор : 4
Формат : AC-3
Формат/Информация : Audio Coding 3
Расширение режима : CM (complete main)
Параметр Endianness формата : Big
Идентификатор кодека : A_AC3
Продолжительность : 2 ч. 6 м.
Вид битрейта : Постоянный
Битрейт : 448 Кбит/сек
Каналы : 6 каналов
Расположение каналов : Front: L C R, Side: L R, LFE
Частота : 48,0 КГц
Битовая глубина : 16 бит
Метод сжатия : С потерями
Размер потока : 407 Мбайт (3%)
Заголовок : П.Гланц и Е.Лютая
Язык : Russian
Default : Нет
Forced : Нет

Аудио #4
Идентификатор : 5
Формат : AC-3
Формат/Информация : Audio Coding 3
Расширение режима : CM (complete main)
Параметр Endianness формата : Big
Идентификатор кодека : A_AC3
Продолжительность : 2 ч. 6 м.
Вид битрейта : Постоянный
Битрейт : 448 Кбит/сек
Каналы : 6 каналов
Расположение каналов : Front: L C R, Side: L R, LFE
Частота : 48,0 КГц
Битовая глубина : 16 бит
Метод сжатия : С потерями
Размер потока : 407 Мбайт (3%)
Заголовок : Гаврилов
Язык : Russian
Default : Нет
Forced : Нет

Аудио #5
Идентификатор : 6
Формат : AC-3
Формат/Информация : Audio Coding 3
Расширение режима : CM (complete main)
Параметр Endianness формата : Big
Идентификатор кодека : A_AC3
Продолжительность : 2 ч. 6 м.
Вид битрейта : Постоянный
Битрейт : 448 Кбит/сек
Каналы : 6 каналов
Расположение каналов : Front: L C R, Side: L R, LFE
Частота : 48,0 КГц
Битовая глубина : 16 бит
Метод сжатия : С потерями
Размер потока : 407 Мбайт (3%)
Заголовок : Михалев
Язык : Russian
Default : Нет
Forced : Нет

Аудио #6
Идентификатор : 7
Формат : AC-3
Формат/Информация : Audio Coding 3
Расширение режима : CM (complete main)
Параметр Endianness формата : Big
Идентификатор кодека : A_AC3
Продолжительность : 2 ч. 6 м.
Вид битрейта : Постоянный
Битрейт : 384 Кбит/сек
Каналы : 6 каналов
Расположение каналов : Front: L C R, Side: L R, LFE
Частота : 48,0 КГц
Битовая глубина : 16 бит
Метод сжатия : С потерями
Размер потока : 349 Мбайт (2%)
Заголовок : Дубляж
Язык : Ukrainian
Default : Нет
Forced : Нет

Аудио #7
Идентификатор : 8
Формат : DTS
Формат/Информация : Digital Theater Systems
Идентификатор кодека : A_DTS
Продолжительность : 2 ч. 6 м.
Вид битрейта : Постоянный
Битрейт : 1510 Кбит/сек
Каналы : 6 каналов
Расположение каналов : Front: L C R, Side: L R, LFE
Частота : 48,0 КГц
Битовая глубина : 24 бит
Метод сжатия : С потерями
Размер потока : 1,34 Гбайт (9%)
Default : Нет
Forced : Нет

Текст #1
Идентификатор : 9
Формат : UTF-8
Идентификатор кодека : S_TEXT/UTF8
Идентификатор кодека/Информация : UTF-8 Plain Text
Язык : Russian
Default : Да
Forced : Нет

Текст #2
Идентификатор : 10
Формат : UTF-8
Идентификатор кодека : S_TEXT/UTF8
Идентификатор кодека/Информация : UTF-8 Plain Text
Язык : English
Default : Нет
Forced : Нет

Текст #3
Идентификатор : 11
Формат : UTF-8
Идентификатор кодека : S_TEXT/UTF8
Идентификатор кодека/Информация : UTF-8 Plain Text
Язык : English
Default : Нет
Forced : Нет

Меню
00:00:00.000 : en:00:00:00.000
00:04:41.907 : en:00:04:41.907
00:08:11.032 : en:00:08:11.032
00:11:49.042 : en:00:11:49.042
00:14:14.437 : en:00:14:14.437
00:17:19.413 : en:00:17:19.413
00:22:14.583 : en:00:22:14.583
00:24:51.448 : en:00:24:51.448
00:26:52.152 : en:00:26:52.152
00:30:15.564 : en:00:30:15.564
00:36:31.564 : en:00:36:31.564
00:41:10.426 : en:00:41:10.426
00:44:41.387 : en:00:44:41.387
00:47:42.401 : en:00:47:42.401
00:50:23.729 : en:00:50:23.729
00:54:47.534 : en:00:54:47.534
00:56:31.138 : en:00:56:31.138
01:00:16.112 : en:01:00:16.112
01:03:08.743 : en:01:03:08.743
01:05:31.386 : en:01:05:31.386
01:07:47.313 : en:01:07:47.313
01:10:43.531 : en:01:10:43.531
01:13:36.329 : en:01:13:36.329
01:16:11.358 : en:01:16:11.358
01:18:57.107 : en:01:18:57.107
01:21:20.042 : en:01:21:20.042
01:23:28.420 : en:01:23:28.420
01:25:16.737 : en:01:25:16.737
01:26:58.046 : en:01:26:58.046
01:31:21.935 : en:01:31:21.935
01:36:57.061 : en:01:36:57.061
01:38:53.427 : en:01:38:53.427
01:41:32.545 : en:01:41:32.545
01:49:18.260 : en:01:49:18.260
01:56:05.667 : en:01:56:05.667
02:00:05.907 : en:02:00:05.907

: Нет
Существует вырезанная сцена, в которой показано, как из обладающего божественной силой Грааля делают глотки Маркус и Салах. Но в итоге режиссер этот эпизод не вносил в фильм. «Бессмертных нам не нужно», — шутил Спилберг.
Каменная конструкция — храм Грааля — на самом деле, древнее место в городе Петра, Иордания.
Шон Коннери, сыгравший отца Индианы Джонса, старше Харисона Форда всего на 12 лет.
Во время съемок эпизода на дирижабле стояла жара, превышающая 35 градусов. Актеры просто взмокли, сидя в пиджаках и жилетках, но Шон Коннери не растерялся и, воспользовавшись тем, что в эпизоде за столом был виден только верх актеров, снял с себя обувь и брюки, чем немало удивил всю съемочную команду. Смутившийся вначале Форд, однако, тоже последовал его примеру, и эпизод был снят практически с первого дубля. Актеры не сбились ни разу, несмотря на то, что вся съемочная команда покатывалась со смеха.
Во время разговора в дирижабле салфетка лежащая на столе периодически появляется в кадре то справа то слева.
В дирижабле, до отправления, Шон Коннери читает газету в перевёрнутом виде.
Мужчину по имени Федора (его сыграл Ричард Янг), который надел на молодого Инди свою шляпу, на начальной стадии написания сценария звали Абнэр Рэйвенвуд — по задумке так состоялась первая встреча Индианы Джонс и отца Мэрион из первого и четвёртого фильмов.
Роль жены Уолтера Донована, которого играет Джулиан Гловер, исполняет Айла Блэр, жена актёра.


Индиана Джонс и Королевство xрустального черепа / Indiana Jones and the Kingdom of the Crystal Skull (2008) [1080p] BDRip
Русское название: Индиана Джонс и Королевство xрустального черепа
Оригинальное название: Indiana Jones and the Kingdom of the Crystal Skull
Год выпуска: 2008
Жанр: боевик, приключения

Описание фильма:
1957 год, разгар холодной войны. Советские солдаты, возглавляемые агентом Ириной Спалько, похищают Мэрион Рэйвенвуд — давнюю возлюбленную Индианы Джонса, ставя профессора перед выбором: бездействие и смерть Мэрион или помощь советской разведке в поисках легендарного Хрустального черепа в обмен на свободу женщины.

Режиссер: Стивен Спилберг
Актеры: Харрисон Форд, Кейт Бланшетт, Карен Аллен, Шайа ЛаБаф, Рэй Уинстон, Джон Хёрт, Джим Бродбент, Игорь Жижикин, Дмитрий Дьяченко, Илья Волох

Продолжительность: 02:02:32
Перевод: Профессиональный многоголосый, Авторский, Дублированный


Качество видео: BDRip
Аудиокодек: AC-3, DTS
Bидео: MPEG 4 AVC/H.264 / 1920x800, 23.976 fps, ~14100 kb/s
Аудио# 1: Русский: AC3, 3/2 ch, ~ 640 kb/s |Дубляж|
Аудио# 2: Русский: AC3, 3/2 ch, ~ 448 kb/s |Многоголосый, Киномания|
Аудио# 3: Русский: AC3, 3/2 ch, ~ 448 kb/s |Многоголосый, Кравец|
Аудио# 4: Русский: DTS, 3/2 ch, ~ 1510 kb/s |Одноголосый закадровый, А.Гаврилов|
Аудио# 5: Русский: DTS, 3/2 ch, ~ 1510 kb/s |Одноголосый закадровый, Сербин|
Аудио# 6: Украинский: AC3, 3/2 ch, ~ 384 kb/s |Дубляж|
Аудио# 7: Английский: DTS, 5.1 ch, 48 kHz, ~1510 kb/s
Субтитры: Английский, Русский
Скриншоты:




Формат : Matroska
Версия формата : Version 2
Размер файла : 18,0 Гбайт
Продолжительность : 2 ч. 2 м.
Режим общего битрейта : Переменный
Общий поток : 21,0 Мбит/сек
Дата кодирования : UTC 2012-09-14 06:09:30
Программа кодирования : mkvmerge v5.8.0 ('No Sleep / Pillow') built on Sep 2 2012 15:37:04
Библиотека кодирования : libebml v1.2.3 + libmatroska v1.3.0

Видео
Идентификатор : 1
Формат : AVC
Формат/Информация : Advanced Video Codec
Профиль формата : High@L4.1
Параметр CABAC формата : Да
Параметр ReFrames формата : 5 кадров
Идентификатор кодека : V_MPEG4/ISO/AVC
Продолжительность : 2 ч. 2 м.
Ширина : 1920 пикселей
Высота : 800 пикселей
Соотношение сторон : 2,40:1
Частота кадров : 23,976 кадра/сек
Цветовое пространство : YUV
Субдискретизация насыщенности : 4:2:0
Битовая глубина : 8 бит
Тип развёртки : Прогрессивная
Библиотека кодирования : x264 core 125 r2200 999b753
Настройки программы : cabac=1 / ref=5 / deblock=1:-3:-3 / analyse=0x3:0x133 / me=tesa / subme=11 / psy=1 / psy_rd=0.95:0.15 / mixed_ref=1 / me_range=16 / chroma_me=1 / trellis=2 / 8x8dct=1 / cqm=0 / deadzone=21,11 / fast_pskip=0 / chroma_qp_offset=-2 / threads=12 / lookahead_threads=2 / sliced_threads=0 / nr=0 / decimate=1 / interlaced=0 / bluray_compat=0 / constrained_intra=0 / bframes=9 / b_pyramid=2 / b_adapt=2 / b_bias=0 / direct=1 / weightb=1 / open_gop=0 / weightp=2 / keyint=250 / keyint_min=23 / scenecut=40 / intra_refresh=0 / rc=crf / mbtree=0 / crf=19.0 / qcomp=0.60 / qpmin=0 / qpmax=69 / qpstep=4 / ip_ratio=1.20 / pb_ratio=1.20 / aq=2:0.60
Язык : English
Default : Да
Forced : Нет

Аудио #1
Идентификатор : 2
Формат : AC-3
Формат/Информация : Audio Coding 3
Расширение режима : CM (complete main)
Параметр Endianness формата : Big
Идентификатор кодека : A_AC3
Продолжительность : 2 ч. 2 м.
Вид битрейта : Постоянный
Битрейт : 640 Кбит/сек
Каналы : 6 каналов
Расположение каналов : Front: L C R, Side: L R, LFE
Частота : 48,0 КГц
Битовая глубина : 16 бит
Метод сжатия : С потерями
Размер потока : 561 Мбайт (3%)
Заголовок : Дубляж
Язык : Russian
Default : Да
Forced : Нет

Аудио #2
Идентификатор : 3
Формат : AC-3
Формат/Информация : Audio Coding 3
Расширение режима : CM (complete main)
Параметр Endianness формата : Big
Идентификатор кодека : A_AC3
Продолжительность : 2 ч. 2 м.
Вид битрейта : Постоянный
Битрейт : 448 Кбит/сек
Каналы : 6 каналов
Расположение каналов : Front: L C R, Side: L R, LFE
Частота : 48,0 КГц
Битовая глубина : 16 бит
Метод сжатия : С потерями
Размер потока : 393 Мбайт (2%)
Заголовок : Киномания
Язык : Russian
Default : Нет
Forced : Нет

Аудио #3
Идентификатор : 4
Формат : AC-3
Формат/Информация : Audio Coding 3
Расширение режима : CM (complete main)
Параметр Endianness формата : Big
Идентификатор кодека : A_AC3
Продолжительность : 2 ч. 2 м.
Вид битрейта : Постоянный
Битрейт : 448 Кбит/сек
Каналы : 6 каналов
Расположение каналов : Front: L C R, Side: L R, LFE
Частота : 48,0 КГц
Битовая глубина : 16 бит
Метод сжатия : С потерями
Размер потока : 393 Мбайт (2%)
Заголовок : студия Кравец
Язык : Russian
Default : Нет
Forced : Нет

Аудио #4
Идентификатор : 5
Формат : DTS
Формат/Информация : Digital Theater Systems
Идентификатор кодека : A_DTS
Продолжительность : 2 ч. 2 м.
Вид битрейта : Постоянный
Битрейт : 1510 Кбит/сек
Каналы : 6 каналов
Расположение каналов : Front: L C R, Side: L R, LFE
Частота : 48,0 КГц
Битовая глубина : 24 бит
Метод сжатия : С потерями
Размер потока : 1,29 Гбайт (7%)
Заголовок : Гаврилов
Язык : Russian
Default : Нет
Forced : Нет

Аудио #5
Идентификатор : 6
Формат : DTS
Формат/Информация : Digital Theater Systems
Идентификатор кодека : A_DTS
Продолжительность : 2 ч. 2 м.
Вид битрейта : Постоянный
Битрейт : 1510 Кбит/сек
Каналы : 6 каналов
Расположение каналов : Front: L C R, Side: L R, LFE
Частота : 48,0 КГц
Битовая глубина : 24 бит
Метод сжатия : С потерями
Размер потока : 1,29 Гбайт (7%)
Заголовок : Сербин
Язык : Russian
Default : Нет
Forced : Нет

Аудио #6
Идентификатор : 7
Формат : AC-3
Формат/Информация : Audio Coding 3
Расширение режима : CM (complete main)
Параметр Endianness формата : Big
Идентификатор кодека : A_AC3
Продолжительность : 2 ч. 2 м.
Вид битрейта : Постоянный
Битрейт : 448 Кбит/сек
Каналы : 6 каналов
Расположение каналов : Front: L C R, Side: L R, LFE
Частота : 48,0 КГц
Битовая глубина : 16 бит
Метод сжатия : С потерями
Размер потока : 393 Мбайт (2%)
Заголовок : Дубляж
Язык : Ukrainian
Default : Нет
Forced : Нет

Аудио #7
Идентификатор : 8
Формат : TrueHD
Идентификатор кодека : A_TRUEHD
Продолжительность : 2 ч. 2 м.
Вид битрейта : Переменный
Максимальный битрейт : 3069 Кбит/сек
Каналы : 6 каналов
Расположение каналов : Front: L C R, Side: L R, LFE
Частота : 48,0 КГц
Метод сжатия : Без потерь
Язык : English
Default : Нет
Forced : Нет

Текст #1
Идентификатор : 9
Формат : UTF-8
Идентификатор кодека : S_TEXT/UTF8
Идентификатор кодека/Информация : UTF-8 Plain Text
Заголовок : Воронин
Язык : Russian
Default : Да
Forced : Нет

Текст #2
Идентификатор : 10
Формат : UTF-8
Идентификатор кодека : S_TEXT/UTF8
Идентификатор кодека/Информация : UTF-8 Plain Text
Заголовок : Киномания
Язык : Russian
Default : Нет
Forced : Нет

Текст #3
Идентификатор : 11
Формат : UTF-8
Идентификатор кодека : S_TEXT/UTF8
Идентификатор кодека/Информация : UTF-8 Plain Text
Язык : English
Default : Нет
Forced : Нет

Меню
00:00:00.000 : en:00:00:00.000
00:05:00.000 : en:00:05:00.000
00:10:00.000 : en:00:10:00.000
00:15:00.000 : en:00:15:00.000
00:20:00.000 : en:00:20:00.000
00:25:00.000 : en:00:25:00.000
00:30:00.000 : en:00:30:00.000
00:35:00.000 : en:00:35:00.000
00:40:00.000 : en:00:40:00.000
00:45:00.000 : en:00:45:00.000
00:50:00.000 : en:00:50:00.000
00:55:00.000 : en:00:55:00.000
01:00:00.000 : en:01:00:00.000
01:05:00.000 : en:01:05:00.000
01:10:00.000 : en:01:10:00.000
01:15:00.000 : en:01:15:00.000
01:20:00.000 : en:01:20:00.000
01:25:00.000 : en:01:25:00.000
01:30:00.000 : en:01:30:00.000
01:35:00.000 : en:01:35:00.000
01:40:00.000 : en:01:40:00.000
01:45:00.000 : en:01:45:00.000
01:50:00.000 : en:01:50:00.000
01:55:00.000 : en:01:55:00.000
02:00:00.000 : en:02:00:00.000
Съемки картины длились всего 79 дней. Это намного меньше, чем работа над любым крупным фильмом — так уж повелось, что истории о приключениях Индианы снимают очень быстро.
На съемках фильма у Харрисона Форда был только один выходной день.
Чтобы заново научиться работать с культовым атрибутом Индианы — кнутом, Харрисону потребовалось 6 дней тренировок.
36 фетровых шляп всего было изготовлено в Миссисипи для съемок картины.
30 кожаных курток было сшито для персонажей Индианы Джонса и Пса Уильямса (Шайа ЛаБаф).
Для съемок сцены в «зыбучих песках», актеры стояли на подмостке, которым управлял специалист по спецэффектам. Таким образом, на площадке появился своеобразный лифт.
Во время съемок в Нью-Мексико съемочная группа столкнулась с тремя гремучими змеями, которых нужно было осторожно перевезти в другое место.
С кем из животных, задействованных в съемках, было труднее всего работать? С козлами. Они не хотели быть в кадре.
Во время съемок фильма Харрисон Форд и Карен Ален отметили свои дни рождения.
Солдаты, принимавшие участие в съемках картины, получили массу новых впечатлений. Одни были поражены древними скульптурами Майя, другие — черепами в одной из сцен, а кто-то танцами рокеров под дождем.
В камере Оксли надпись «Возвращение» написана на разных языках, в том числе и на русском.
На складе, в самом конце сцены показывают «Утраченный ковчег», именно этот артефакт Джонс искал в самой первой части про Индиану.
Заработав 100 миллионов долларов за трехдневный уик-энд, картина стала самой кассовой по сборам в первый уик-энд у Спилберга, намного опередив остальные ленты. Ближе всех оказался «Парк Юрского периода 2» — 72 миллиона.
В утверждённых Ассоциацией кинематографистов правилах безопасности съёмок кнуты в фильме были приравнены к потенциально опасным атрибутам и поэтому должны были создаваться на стадии пост-продакшн при помощи компьютерной анимации.
Профессор Джонс преподаёт в университете Маршалла, названном так в честь продюсера фильма Фрэнка Маршалла.
Писать сценарий предлагали М. Найту Шьямалану и Тому Стоппарду.
Время раздачи: до 10 скачавших..
[NNM-Club.ru]_Indiana_Jones.torrent
 Торрент: Платиновая раздача  Зарегистрирован
 
Скачать


Примагнититься
 Зарегистрирован:   09 Фев 2020 11:12:43
 Размер:   62 GB  (
 Рейтинг:   4,9 (Голосов: 283)
 Поблагодарили:   907
 Проверка:   Оформление проверено модератором 09 Фев 2020 11:33:16
Как cкачать  ·  Как раздать  ·  Правильно оформить  ·  Поднять ратио!  
alancor
Стаж: 8 лет 8 мес.
Сообщений: 433
Ratio: 388,278
100%
russia.gif
Oops_Smile ®
Прекрасный релиз с классными зв. дорогами, спасибо!
ElektrAа
Uploader 500+
Стаж: 9 лет 4 мес.
Сообщений: 2778
Ratio: 4268,575
Раздал: 507,6 TB
Поблагодарили: 385030
100%
Откуда: Южная столица
ukraine.gif
Давно уже хотела пересмотреть даную квадрологию, а тут и еще на 1080р наткнулась, жму СПАСИБО!!!! Заработал!!!! :подмигивание:

_________________
«Правила оформления релизов в разделе Видео» | После исправлений - в ЛС
Illusivi
Uploader 100+
Стаж: 9 лет 5 мес.
Сообщений: 653
Ratio: 877,087
Раздал: 150,4 TB
Поблагодарили: 15218
100%
witch.png
Уже вышло Blu-ray :подмигивание:
Oops_Smile ®
Стаж: 10 лет 2 мес.
Сообщений: 1543
Ratio: 52,664
Раздал: 56,63 TB
Поблагодарили: 46927
100%
Откуда: Симферополь
ElektrAа писал(а): Перейти к сообщению
Давно уже хотела пересмотреть даную квадрологию, а тут и еще на 1080р наткнулась, жму СПАСИБО!!!! Заработал!!!! :подмигивание:

:приветствую:
Illusivi писал(а): Перейти к сообщению
Уже вышло Blu-ray :подмигивание:

Blu-ray у нас есть кому выкладывать :да:

_________________
Мои раздачи
aleksandrn70
Стаж: 7 лет 9 мес.
Сообщений: 24
Ratio: 29,204
100%
russia.gif
Отличьный реализ и качество.Спасибо!!!
taurus1965
Стаж: 8 лет 1 мес.
Сообщений: 50
Ratio: 19,412
100%
ukraine.gif
Отличное издание легендарной квадрологии (грустно, но в пятый фильм как-то не верится). Очень хороши русский закадровый от НТВ+ и украинский дубляж. Ну и, конечно, родной английский. Остальное только для коллекционеров звуковых треков. БОЛЬШОЕ СПАСИБО!
Oops_Smile ®
Стаж: 10 лет 2 мес.
Сообщений: 1543
Ratio: 52,664
Раздал: 56,63 TB
Поблагодарили: 46927
100%
Откуда: Симферополь
taurus1965 писал(а): Перейти к сообщению
(грустно, но в пятый фильм как-то не верится).

мне кажется остановится надо было и на третьем ;) ну дух Голливуда не дает , будем посмотреть ));)

_________________
Мои раздачи
ravilbond
Стаж: 8 лет 10 мес.
Сообщений: 3
Ratio: 52,264
7.69%
russia.gif
1920x800 или фильмы 1920x1080
Oops_Smile ®
Стаж: 10 лет 2 мес.
Сообщений: 1543
Ratio: 52,664
Раздал: 56,63 TB
Поблагодарили: 46927
100%
Откуда: Симферополь
ravilbond писал(а): Перейти к сообщению
1920x800 или фильмы 1920x1080

1920х800 если прибавить черные полосы и будет заветное 1920x1080 :подмигивание:

_________________
Мои раздачи
stringer1989
Стаж: 9 лет 1 мес.
Сообщений: 63
Ratio: 3,482
Поблагодарили: 2
100%
germany.gif
спс большое!раздача мощная.!!и благодарю за классику))

_________________
You will never walk alone......
bondeet
Стаж: 9 лет 10 мес.
Сообщений: 95
Ratio: 44,291
Раздал: 22,94 TB
Поблагодарили: 279
100%
Откуда: Белгород
russia.gif
Помогите докачать, пожалуйста!!

_________________
ASRock EM350M1, 2 Gb DDR2, WD Caviar Green 4 Tb x4 шт, WD Caviar Green 2 Tb х 1шт
DarkRage
Стаж: 10 лет 10 мес.
Сообщений: 7
Ratio: 28,05
0.5%
russia.gif
Народ, 99.9%, дайте докачать раздачу. Останусь.
Anime
Стаж: 13 лет 1 мес.
Сообщений: 116
Ratio: 10,767
Поблагодарили: 32
100%
Откуда: Владивосток
russia.gif
:клево:
DerMann
Стаж: 9 лет 7 мес.
Сообщений: 62
Ratio: 70,165
Поблагодарили: 395
100%
ussr.gif
Супер, спасибо!!! :респект:
Показать сообщения:   
Начать новую тему   Ответить на тему    Торрент-трекер NNM-Club -> Коллекции / *логии -> Зарубежное кино (коллекции / *логии) Часовой пояс: GMT + 3
Страницы:  1, 2  След.
Страница 1 из 2