Классический форум-трекер
canvas not supported
Нас вместе: 4 113 892

Иван Грозный. Портрет без ретуши. (2012) SATRip


 
 
RSS
Начать новую тему   Ответить на тему    Торрент-трекер NNM-Club -> Документалистика и Телепередачи -> Личности в истории
Автор Сообщение
fictionss ®
Стаж: 9 лет 11 мес.
Сообщений: 108
Ratio: 3,387
Поблагодарили: 3376
100%
ussr.gif
Иван Грозный. Портрет без ретуши. (2012) SATRip [серии 1-3 из 3]
Русское название: Иван Грозный. Портрет без ретуши.
Год выпуска: 2012
Жанр: Документальный
Режиссер / Телекомпания: Виталий Янов / Астра - АРТ
Автор и ведущая: Татьяна Борщ

Описание:
1885 год. В Санкт-Петербурге выставлена новая работа Ильи Репина «Иван Грозный и его сын Иван». Картина вызвала крайнее возмущение Петербургской интеллигенции. Обер-прокурор Святейшего Синода, русский мыслитель Константин Петрович Победоносцев отправил императору Александру III письмо: «Нельзя назвать картину исторической, так как этот момент... фантастический. Иван Грозный не убивал своего сына».
Этот фильм - историческое расследование, посвященное анализу деятельности русского царя.
Имя Ивана Грозного для многих ассоциируется со словами "деспот", "тиран". Но так ли это? Целый ряд исторических документов свидетельствует об ином. В фильме представлено ряд исторических фактов, которые ранее широко не освещались и рассматривается версия причастности наиболее передовых и мощных в геополитическом плане иностранных держав к смерти русского царя, за время правления которого Россия окрепла и стала для зарубежных государств достойным "конкурентом"!

Участники: Вячеслав Манягин, Сергей Никитин, Валерий Шамбаров, Виктор Пономаренко, Дмитрий Володихин, Елена Александровская

В ролях: Михаил Кравченко, Дмитрий Бедерин, Александр Караваев, Юрий Голубцов, Сергей Буданов, Дэвид Рассел, Сергей Капишников, Андрей Новиков, Борислав Дронзиков, Валентин Юнин, Ахмед Сатаров, Булат Газимзянов, Валерий Лущевский, Юрий Маркин, Ольга Квасникова

Продолжительность: 3x~00:37:30

Видеокодек: MPEG-2
Битрейт видео: ~2147 kbps
Размер кадра: 704 x 576, 4:3
Качество видео: SATRip
Аудиокодек: MP2
Битрейт аудио: 48000Hz, 128.00 kbps
Общее
Полное имя : H:\Видео-закачка\Телевизионные передачи\Исторические\История с Татьяной Борщ\Иван Грозный. Портрет без ретуши\01.Иван Грозный. Портрет без ретуши.mpg
Формат : MPEG-PS
Размер файла : 628 Мбайт
Продолжительность : 37 м.
Режим общего битрейта : Переменный
Общий поток : 2348 Кбит/сек
Библиотека кодирования : (c) 1998-2011 Womble Multimedia, Inc. / MPEG Video Wizard DVD 5.0.1.100 (03/2011) / Dec 15 2011

Видео
Идентификатор : 224 (0xE0)
Формат : MPEG Video
Версия формата : Version 2
Профиль формата : Main@Main
Параметр BVOP формата : Да
Параметр матрицы формата : Выборочная
Параметр GOP формата : M=3, N=24
Продолжительность : 37 м.
Вид битрейта : Переменный
Битрейт : 2174 Кбит/сек
Максимальный битрейт : 15,0 Мбит/сек
Ширина : 704 пикселя
Высота : 576 пикселей
Соотношение сторон : 4:3
Частота кадров : 25,000 кадров/сек
Стандарт вещания : PAL
Цветовое пространство : YUV
Субдискретизация насыщенности : 4:2:0
Битовая глубина : 8 бит
Тип развёртки : Чересстрочная
Порядок развёртки : Верхнее поле первое
Метод сжатия : С потерями
Бит/(Пиксели*Кадры) : 0.214
Размер потока : 581 Мбайт (93%)
Библиотека кодирования : (c) 1998-2011 Womble Multimedia, Inc. / MPEG Video Wizard DVD 5.0.1.100 (03/2011) / Dec 15 2011

Аудио
Идентификатор : 192 (0xC0)
Формат : MPEG Audio
Версия формата : Version 1
Профиль формата : Layer 2
Продолжительность : 37 м.
Вид битрейта : Постоянный
Битрейт : 128 Кбит/сек
Каналы : 2 канала
Частота : 48,0 КГц
Метод сжатия : С потерями
Задержка видео : -80 мс.
Размер потока : 34,2 Мбайт (5%)
Общее
Полное имя : H:\Видео-закачка\Телевизионные передачи\Исторические\История с Татьяной Борщ\Иван Грозный. Портрет без ретуши\02.Иван Грозный. Портрет без ретуши.mpg
Формат : MPEG-PS
Размер файла : 592 Мбайт
Продолжительность : 38 м.
Режим общего битрейта : Переменный
Общий поток : 2147 Кбит/сек
Библиотека кодирования : (c) 1998-2011 Womble Multimedia, Inc. / MPEG Video Wizard DVD 5.0.1.100 (03/2011) / Dec 15 2011

Видео
Идентификатор : 224 (0xE0)
Формат : MPEG Video
Версия формата : Version 2
Профиль формата : Main@Main
Параметр BVOP формата : Да
Параметр матрицы формата : Выборочная
Продолжительность : 38 м.
Вид битрейта : Переменный
Битрейт : 1977 Кбит/сек
Максимальный битрейт : 15,0 Мбит/сек
Ширина : 704 пикселя
Высота : 576 пикселей
Соотношение сторон : 4:3
Частота кадров : 25,000 кадров/сек
Стандарт вещания : PAL
Цветовое пространство : YUV
Субдискретизация насыщенности : 4:2:0
Битовая глубина : 8 бит
Тип развёртки : Чересстрочная
Порядок развёртки : Верхнее поле первое
Метод сжатия : С потерями
Бит/(Пиксели*Кадры) : 0.195
Размер потока : 545 Мбайт (92%)
Библиотека кодирования : (c) 1998-2011 Womble Multimedia, Inc. / MPEG Video Wizard DVD 5.0.1.100 (03/2011) / Dec 15 2011

Аудио
Идентификатор : 192 (0xC0)
Формат : MPEG Audio
Версия формата : Version 1
Профиль формата : Layer 2
Продолжительность : 38 м.
Вид битрейта : Постоянный
Битрейт : 128 Кбит/сек
Каналы : 2 канала
Частота : 48,0 КГц
Метод сжатия : С потерями
Размер потока : 35,3 Мбайт (6%)
Общее
Полное имя : H:\Видео-закачка\Телевизионные передачи\Исторические\История с Татьяной Борщ\Иван Грозный. Портрет без ретуши\03.Иван Грозный. Портрет без ретуши.mpg
Формат : MPEG-PS
Размер файла : 602 Мбайт
Продолжительность : 38 м.
Режим общего битрейта : Переменный
Общий поток : 2203 Кбит/сек
Библиотека кодирования : (c) 1998-2011 Womble Multimedia, Inc. / MPEG Video Wizard DVD 5.0.1.100 (03/2011) / Dec 15 2011

Видео
Идентификатор : 224 (0xE0)
Формат : MPEG Video
Версия формата : Version 2
Профиль формата : Main@Main
Параметр BVOP формата : Да
Параметр матрицы формата : Выборочная
Параметр GOP формата : M=3, N=27
Продолжительность : 38 м.
Вид битрейта : Переменный
Битрейт : 2032 Кбит/сек
Максимальный битрейт : 15,0 Мбит/сек
Ширина : 704 пикселя
Высота : 576 пикселей
Соотношение сторон : 4:3
Частота кадров : 25,000 кадров/сек
Стандарт вещания : PAL
Цветовое пространство : YUV
Субдискретизация насыщенности : 4:2:0
Битовая глубина : 8 бит
Тип развёртки : Чересстрочная
Порядок развёртки : Верхнее поле первое
Метод сжатия : С потерями
Бит/(Пиксели*Кадры) : 0.200
Размер потока : 555 Мбайт (92%)
Библиотека кодирования : (c) 1998-2011 Womble Multimedia, Inc. / MPEG Video Wizard DVD 5.0.1.100 (03/2011) / Dec 15 2011

Аудио
Идентификатор : 192 (0xC0)
Формат : MPEG Audio
Версия формата : Version 1
Профиль формата : Layer 2
Продолжительность : 38 м.
Вид битрейта : Постоянный
Битрейт : 128 Кбит/сек
Каналы : 2 канала
Частота : 48,0 КГц
Метод сжатия : С потерями
Задержка видео : 24 мс.
Размер потока : 34,9 Мбайт (6%)
Скриншоты:

Время раздачи: С 20:00 до 24:00 ежедневно

Мои раздачи
[NNM-Club.ru]_Ivan Groznyiy. Portret bez retushi. 2012_SATRip_(704x576).torrent
 Торрент: Платиновая раздача  Зарегистрирован
 
Скачать


 Зарегистрирован:   06 Окт 2012 16:20:50
 Размер:   1,78 GB  (
 Рейтинг:   4,4 (Голосов: 27)
 Поблагодарили:   96
 Проверка:   Оформление проверено модератором 07 Окт 2012 17:20:34
Как cкачать  ·  Как раздать  ·  Правильно оформить  ·  Поднять ратио!  
gunners91
Стаж: 10 лет
Сообщений: 626
Ratio: 21,941
Поблагодарили: 33904
100%
ussr.gif
Смотрел по ТВ, очень интересно.

_________________
Там, куда мы направляемся, дороги не нужны.
fictionss ®
Стаж: 9 лет 11 мес.
Сообщений: 108
Ratio: 3,387
Поблагодарили: 3376
100%
ussr.gif
Да, супер! Самое интересное то, что все правители, при которых у России был положительный качественный скачек - дискредитировались зарубежными государствами! Российскую историю всячески пытались "супер державы" смешать с грязью и переписать! А сейчас еще и мелочь всякая присоединилась к этому безобразию!!!

:подмигивание:
Злой Перец
 
Стаж: 9 лет 3 мес.
Сообщений: 791
Ratio: 4,194
Поблагодарили: 496
100%
Откуда: Великороссия
russia.gif
Спасибо!
Колобок2
Стаж: 10 лет 3 мес.
Сообщений: 78
Ratio: 8,318
100%
При Иване Грозном скачок был.... Только вот в яму .... Бояр убивали, а простой народ с Руси бежал во все стороны
puper_ingener
Стаж: 9 лет 6 мес.
Сообщений: 29
Ratio: 4,902
100%
fictionss писал(а): Перейти к сообщению
Да, супер! Самое интересное то, что все правители, при которых у России был положительный качественный скачек - дискредитировались зарубежными государствами! Российскую историю всячески пытались "супер державы" смешать с грязью и переписать! А сейчас еще и мелочь всякая присоединилась к этому безобразию!!!

:подмигивание:

недавно прочитал книгу "И что была тогда Россия" краткая выписка из 12 томов "История государства Российского" Н.М. Карамзина окончательно дописанные в 1612. так вот никуда страна не прыгала в его время. самодур самодуром, к тому же настолько параноидально настроенный что это  . перевалил всех бояр, хотя бояре были до того хорошие, состоявшиеся и умные люди. а вот в его время начали заводится интриги, доносы и прочее которого до этого не было. а простой народ сколько страдал от этого "великого" самодержца. в итоге ничегошеньки он хорошего не сделал. казань взял!!!??? так блин потом забрали на время её =))) а после него началась ооочень долгая смута, всяких лжедмитриев и прочего. короче беда а не владыка!
fictionss ®
Стаж: 9 лет 11 мес.
Сообщений: 108
Ratio: 3,387
Поблагодарили: 3376
100%
ussr.gif
Колобок2 писал(а): Перейти к сообщению
При Иване Грозном скачок был.... Только вот в яму .... Бояр убивали, а простой народ с Руси бежал во все стороны


Я вот что хочу сказать .............
Как только на Руси появлялся вождь, при котором Россия не только не вставала на колени, но и резко в своем развитии шла вперед - различные писаки начинали всякие гадости писать в летописях и более современных изданиях! Это все информационный мусор!
А не проще ли сделать иначе ..... по математически ....
Есть некие фундаментальные точки для государства российского, которые соответствую правлению конкретного правителя! Это и будет ответом на все вопросы оппонентов!
И потом ..... если бы Иван Грозный был таков, как ВЫ себе представляете и пишете здесь- где бы мы все сейчас были .... Под поляками, литовцами, эстонцами, тевтонцами, англичанами???????????
Благодаря ему русские (я имею все в том числе аля советские республики) остались русскими, а Россия стала еще могущественнее! И это ценой своей жизни и своей семьи!

_________________
Когда я могу сидеть - я никогда не стою!
Когда я могу лежать - я никогда не сижу!
fictionss ®
Стаж: 9 лет 11 мес.
Сообщений: 108
Ratio: 3,387
Поблагодарили: 3376
100%
ussr.gif
Кому интересна документалка об истории России можете посмотреть эти раздачи еще:


Кто штурмовал "Зимний" (2003) TVRip
Парвус революции (2006) TVRip
Караул устал ждать (2006) TVRip

_________________
Когда я могу сидеть - я никогда не стою!
Когда я могу лежать - я никогда не сижу!
в.а.ж.
Стаж: 10 лет 2 мес.
Сообщений: 2
Ratio: 0,552
100%
russia.gif
Иван Васильевич 4 "Грозный" - величайший правитель за всю историю России!!! Сегодняшние границы нашей страны - это в основном Его заслуга!!! Не читайте Н.М. Карамзина - это чёрный пиарщик Ивана 4.
Книга была заказана Романовыми, так, что же за их деньги он мог написать?! Спасибо автору фильма огромное.
lewa1234
Стаж: 8 лет 11 мес.
Сообщений: 19
Ratio: 2,87
100%
russia.gif
Сколько всего серий, три? Удалите мой тупой вопрос, я бухой просто! Админы сжальтесь!
NISIAR
 
Стаж: 13 лет 7 мес.
Сообщений: 1258
Ratio: 36,254
Поблагодарили: 1743
100%
russia.gif
кинцо снято очень просто -на уровне театрального кружка
автор и ведущая Татьяна Борщ
Профессиональный астролог, режиссёр, сценарист, продюсер документального кино.(как чукча что вижу или хочу видеть то пою )
в общем чепуха

_________________
а щастье было так близко , так возможно !
alart22
Стаж: 7 лет 3 мес.
Сообщений: 121
Ratio: 16,239
80.73%
ussr.gif
При всём моём уважении к Иоанну Васильевичу Грозному, почему этот фильм в теме "Кинолетопись страны советов"????
 !  Выбранные темы были перемещены
Показать сообщения:   
Начать новую тему   Ответить на тему    Торрент-трекер NNM-Club -> Документалистика и Телепередачи -> Личности в истории Часовой пояс: GMT + 3
Страница 1 из 1