Классический форум-трекер
canvas not supported
Нас вместе: 4 077 793

Resident Evil 4D Executor / Обитель зла: 4D Палач [2000, MV, 1 из 1] DVDRip hs + rusx2


 
 
RSS
Начать новую тему   Ответить на тему    Торрент-трекер NNM-Club -> Аниме разное -> Аниме хардсаб
Автор Сообщение
gdfhs6t6we ®
Стаж: 8 лет 4 мес.
Сообщений: 675
Ratio: 780,298
Поблагодарили: 12213
100%
albania.gif
バイオハザード4Dエグゼクター / Resident Evil 4D Executor / Обитель зла: 4D Палач

Жанр: Приключения, ужасы
Тип: Короткометражный фильм
Продолжительность: 19 мин.
Дата премьеры / период выхода: 2000

Режиссер: Охата Койти

Качество видео: DVDRip
Видео: MPEG-4, 640x464, 29,970 кадра/сек, ~1967 кбит/с
Аудио #1: MPEG Audio, 44,1 КГц, 2 ch, ~128 кбит/с Звук: Русский (поверх японского), Любительский (одноголосый). Озвучка: Cuba77
Аудио #1: MPEG Audio, 44,1 КГц, 2 ch, ~128 кбит/с Звук: Русский (поверх японского), Любительский (многолосый). Озвучка: Максим Кулаков, Александр Седых, Александра Кост
Тип субтитров: HS
Язык неотключаемых субтитров: Английский
Код:

Общее
Полное имя                               : R:\torrent\Resident Evil 4D Executor.avi
Формат                                   : AVI
Формат/Информация                        : Audio Video Interleave
Размер файла                             : 319 Мбайт
Продолжительность                        : 19 м.
Общий поток                              : 2236 Кбит/сек
Программа кодирования                    : VirtualDubModRus 1.5.10.2 (build 2542/release)
Библиотека кодирования                   : VirtualDubMod build 2542/release

Видео
Идентификатор                            : 0
Формат                                   : MPEG-4 Visual
Профиль формата                          : Advanced Simple@L5
Параметр BVOP формата                    : 2
Параметр QPel формата                    : Нет
Параметр GMC формата                     : Без точки перехода
Параметр матрицы формата                 : Default (H.263)
Идентификатор кодека                     : XVID
Идентификатор кодека/Подсказка           : XviD
Продолжительность                        : 19 м.
Битрейт                                  : 1967 Кбит/сек
Ширина                                   : 640 пикселей
Высота                                   : 464 пикселя
Соотношение сторон                       : 1,379
Соотношение сторон в оригинале           : 4:3
Частота кадров                           : 29,970 кадров/сек
Цветовое пространство                    : YUV
Субдискретизация насыщенности            : 4:2:0
Битовая глубина                          : 8 бит
Тип развёртки                            : Прогрессивная
Метод сжатия                             : С потерями
Бит/(Пиксели*Кадры)                      : 0.221
Размер потока                            : 281 Мбайт (88%)
Библиотека кодирования                   : XviD 1.2.1 (UTC 2008-12-04)

Аудио #1
Идентификатор                            : 1
Формат                                   : MPEG Audio
Версия формата                           : Version 1
Профиль формата                          : Layer 3
Режим                                    : Joint stereo
Расширение режима                        : MS Stereo
Идентификатор кодека                     : 55
Идентификатор кодека/Подсказка           : MP3
Продолжительность                        : 19 м.
Вид битрейта                             : Постоянный
Битрейт                                  : 128 Кбит/сек
Каналы                                   : 2 канала
Частота                                  : 44,1 КГц
Метод сжатия                             : С потерями
Размер потока                            : 18,3 Мбайт (6%)
Выравнивание                             : Разделение по промежуткам
Продолжительность промежутка             : 33  мс. (1,00 видеокадр)
Время предзагрузки промежутка            : 500  мс.
Библиотека кодирования                   : LAME3.98

Аудио #2
Идентификатор                            : 2
Формат                                   : MPEG Audio
Версия формата                           : Version 1
Профиль формата                          : Layer 3
Режим                                    : Joint stereo
Расширение режима                        : MS Stereo
Идентификатор кодека                     : 55
Идентификатор кодека/Подсказка           : MP3
Продолжительность                        : 19 м.
Вид битрейта                             : Постоянный
Битрейт                                  : 128 Кбит/сек
Каналы                                   : 2 канала
Частота                                  : 44,1 КГц
Метод сжатия                             : С потерями
Размер потока                            : 17,6 Мбайт (6%)
Выравнивание                             : Разделение по промежуткам
Продолжительность промежутка             : 35  мс. (1,04 видеокадр)
Время предзагрузки промежутка            : 500  мс.

Описание:
Это официальный двадцатиминутный CG-фильм по мотивам легендарной игры, повествующий о команде специального назначения, посланной в Раккун-сити с целью найти бывшую сотрудницу корпорации «Амбрелла».
Данный фильм демонстрируется в Японии в специально оборудованном кинозале. Заплатив около 600 йен, вы садитесь в специальное кресло с гидравлической подвеской, которое может двигаться в разных направлениях. Надев специальные 3D очки, и морально подготовившись, вы приступаете к просмотру ролика.

Эта серия состоит из:
#1 Обитель зла: 4D Палач - к/ф, адаптация игры, 2000
#2 Biohazard 4: Incubate - OVA (1 эп.), адаптация игры, 2006
#3 Обитель зла: Вырождение - п/ф, адаптация игры, 2008
#4 Обитель зла: Проклятие - OVA (1 эп.), продолжение, 2012

Ссылки:
Ani-DB ::: World Art

Скриншоты:


Время раздачи: 24/7 до первых 3х скачавших
P.S. Biohazard 4: Incubate - OVA (1 эп.), адаптация игры, 2006 если есть у кого-нибудь, огромная просьба выложить
[NNM-Club.ru]_Resident Evil 4D Executor.avi.torrent
 Торрент: Платиновая раздача  Зарегистрирован
 
Скачать


Примагнититься
 Зарегистрирован:   20 Окт 2012 14:03:22
 Размер:   319 MB  (
 Рейтинг:   4,6 (Голосов: 42)
 Поблагодарили:   101
 Проверка:   Оформление проверено модератором 20 Окт 2012 21:31:14
Как cкачать  ·  Как раздать  ·  Правильно оформить  ·  Поднять ратио!  
Показать сообщения:   
Начать новую тему   Ответить на тему    Торрент-трекер NNM-Club -> Аниме разное -> Аниме хардсаб Часовой пояс: GMT + 3
Страница 1 из 1