Классический форум-трекер
canvas not supported
Нас вместе: 4 077 927

Осведомитель / Sin yan (2010) DVD9


 
 
RSS
Начать новую тему   Ответить на тему    Торрент-трекер NNM-Club -> Зарубежное кино -> Азиатское кино (DVD)
Автор Сообщение
Alex_Fors ®
Стаж: 9 лет
Сообщений: 387
Ratio: 102,587
Поблагодарили: 18360
100%
portugal.gif
Осведомитель / Sin yan (2010) DVD9
Русское название: Осведомитель
Оригинальное название: Sin yan
Производство: Гонконг
Год выпуска: 2010
Жанр: Боевик, Триллер, Драма

Описание фильма:
Полицейский Дон Ли привык работать со стукачами, но слишком уж часто он бывает на грани провала, слишком часто операции срываются, вот почему мир теперь кажется ему лишь чередой предательств. Но знакомство с Гаем дает ему еще один шанс изменить свои взгляды на жизнь.

Режиссер: Данте Лам
Актеры: Ник Чунг, Николас Тсе, Луньмэй Квай, Лью Кай Чи, Мяо Пу, Лу И, Лоуренс Чэн, Шерман Чунг, Тони Хо, Филип Кеунг ...

Продолжительность: 01:52:07
Перевод: Двуголосый закадровый
Язык субтитров: русский
Вид субтитров: Вшитые отключаемые



Дата мировой премьеры: 26 августа 2010
Дата выхода DVD релиза: 7 августа 2012, «Lizard Cinema Trade»

Видеокодек: MPEG-2
Битрейт видео: ~5503 kb/s
Размер кадра: 720x576@1024x576 (PAL 16:9) VBR Auto Pan&Scan, Auto Letterboxed
Качество видео: DVD9
Аудио: (Dolby AC3, 6 ch) ~384 kb/s |Русский, двуголосый закадровый|
Аудио: (Dolby AC3, 2 ch) ~256 kb/s |Русский, двуголосый закадровый|
Аудио: (Dolby AC3, 2 ch) ~256 kb/s |Китайский, оригинальный|
СЭМПЛ
Дополнительные материалы: Отсутствуют
Азиатская киноакадемия, 2011 год
Номинации:
>>>>>Лучшая операторская работа (Chung-to Tse)<<<<<
Title: Осведомитель.2010.DVD9
Size: 5.15 Gb ( 5 400 872,00 KBytes ) - DVD-9
Enabled regions: 1, 2, 3, 4, 5, 6, 7, 8

VTS_01 :
Play Length: 00:00:20+{00:00:20}+{00:00:20}
Video: PAL 4:3 (720x576) VBR
Audio:
Russian (Dolby AC3, 2 ch)
English (Dolby AC3, 6 ch)
English (Dolby AC3, 6 ch)

VTS_02 :
Play Length: 01:52:07
Video: PAL 16:9 (720x576) VBR, Auto Pan&Scan, Auto Letterboxed
Audio:
Russian (Dolby AC3, 6 ch)
Russian (Dolby AC3, 2 ch)
Chinese (Dolby AC3, 2 ch)
Subtitles:
Russian

* Menus Information *

VIDEO_TS Menu
Video:
PAL 4:3 (720x576) VBR
English Language Unit :
Title Menu

VTS_01 Menu
Video:
PAL 4:3 (720x576) VBR
Audio:
Not specified (Dolby AC3, 2 ch)
English Language Unit :
Root Menu
Chapter (PTT) Menu

VTS_02 Menu
Video:
PAL 4:3 (720x576) VBR
English Language Unit :
Root Menu
Subpicture Menu
Audio Menu
Chapter (PTT) Menu
Формат : MPEG-PS
Размер файла : 1024 Мбайт
Продолжительность : 21 м.
Общий поток : 6529 Кбит/сек

Видео
Идентификатор : 224 (0xE0)
Формат : MPEG Video
Версия формата : Version 2
Профиль формата : Main@Main
Параметр BVOP формата : Да
Параметр матрицы формата : Выборочная
Параметр GOP формата : M=3, N=12
Продолжительность : 21 м.
Вид битрейта : Переменный
Битрейт : 5503 Кбит/сек
Максимальный битрейт : 8000 Кбит/сек
Ширина : 720 пикселей
Высота : 576 пикселей
Соотношение сторон : 16:9
Частота кадров : 25,000 кадров/сек
Стандарт вещания : PAL
Цветовое пространство : YUV
Субдискретизация насыщенности : 4:2:0
Битовая глубина : 8 бит
Тип развёртки : Чересстрочная
Порядок развёртки : Верхнее поле первое
Метод сжатия : С потерями
Бит/(Пиксели*Кадры) : 0.531
Размер потока : 863 Мбайт (84%)

Аудио #1
Идентификатор : 189 (0xBD)-128 (0x80)
Формат : AC-3
Формат/Информация : Audio Coding 3
Расширение режима : CM (complete main)
Режим смешивания : DVD-Video
Продолжительность : 21 м.
Вид битрейта : Постоянный
Битрейт : 384 Кбит/сек
Каналы : 6 каналов
Расположение каналов : Front: L C R, Side: L R, LFE
Частота : 48,0 КГц
Битовая глубина : 16 бит
Метод сжатия : С потерями
Задержка видео : -576 мс.
Размер потока : 60,2 Мбайт (6%)

Аудио #2
Идентификатор : 189 (0xBD)-129 (0x81)
Формат : AC-3
Формат/Информация : Audio Coding 3
Расширение режима : CM (complete main)
Режим смешивания : DVD-Video
Продолжительность : 21 м.
Вид битрейта : Постоянный
Битрейт : 256 Кбит/сек
Каналы : 2 канала
Расположение каналов : Front: L R
Частота : 48,0 КГц
Битовая глубина : 16 бит
Метод сжатия : С потерями
Задержка видео : -608 мс.
Размер потока : 40,2 Мбайт (4%)

Аудио #3
Идентификатор : 189 (0xBD)-130 (0x82)
Формат : AC-3
Формат/Информация : Audio Coding 3
Расширение режима : CM (complete main)
Режим смешивания : DVD-Video
Продолжительность : 21 м.
Вид битрейта : Постоянный
Битрейт : 256 Кбит/сек
Каналы : 2 канала
Расположение каналов : Front: L R
Частота : 48,0 КГц
Битовая глубина : 16 бит
Метод сжатия : С потерями
Задержка видео : -608 мс.
Размер потока : 40,2 Мбайт (4%)

Текст
Идентификатор : 189 (0xBD)-32 (0x20)
Формат : RLE
Формат/Информация : Run-length encoding
Режим смешивания : DVD-Video
Задержка видео : 1 с. 40 мс.

Меню
Скриншоты:


Время раздачи: 15:00-20:00
[NNM-Club.ru]_Osvedomitel'.2010.DVD9.torrent
 Торрент: Золотая раздача  Зарегистрирован
 
Зарегистрируйтесь и скачайте торрент!
26,9 KB

 Зарегистрирован:   20 Авг 2012 08:38:15
 Размер:   5,15 GB  (
 Рейтинг:    (Голосов: 4)
 Поблагодарили:   24
 Проверка:   Оформление проверено модератором 20 Авг 2012 09:26:25
Как cкачать  ·  Как раздать  ·  Правильно оформить  ·  Поднять ратио!  
Klim-mv87
Стаж: 7 лет 9 мес.
Сообщений: 39
Ratio: 1,163
5.68%
russia.gif
интересный фильм, и не смотря на то что он азиатский. Смотрел с удовольствием
Показать сообщения:   
Начать новую тему   Ответить на тему    Торрент-трекер NNM-Club -> Зарубежное кино -> Азиатское кино (DVD) Часовой пояс: GMT + 3
Страница 1 из 1