Классический форум-трекер
canvas not supported
Нас вместе: 4 079 280

11:14 / Одиннадцать четырнадцать (2003) BDRip


 
 
RSS
Начать новую тему   Ответить на тему    Торрент-трекер NNM-Club -> Зарубежное кино -> Зарубежные Фильмы (HD*Rip/LQ, DVDRip, SATRip, VHSRip)
Автор Сообщение
artem timer ®
Стаж: 9 лет 10 мес.
Сообщений: 1336
Ratio: 46,887
Раздал: 13,13 TB
Поблагодарили: 39578
100%
Откуда: город закатов
russia.gif
11:14 / Одиннадцать четырнадцать (2003) BDRip
Русское название: 11:14
Оригинальное название: 11:14
Год выпуска: 2003
Жанр: Комедия, Драма, Криминал

Описание фильма:
Миддлтон — очень миленькое провинциальное местечко. Одной очень странной ночью по шоссе на большой скорости движется автомобиль. За рулем изрядно подвыпивший парень говорит с кем-то по телефону. Громко орет радио. На часах 11:13. Вдруг внезапно на лобовое стекло падают чьи-то части тела. Время — 11:14… Добро пожаловать в Миддлтон!

Режиссер: Грег Маркс
Актеры: Хилари Суэнк, Рэйчел Ли Кук, Патрик Суэйзи, Генри Томас, Шон Хэтоси, Колин Хэнкс, Бен Фостер, Старк Сэндс, Барбара Херши

Продолжительность: 01:25:42
Перевод: Дублированный



Видеокодек: Xvid
Битрейт видео: ~1075 kb/s
Размер кадра: 688x384
Качество видео: BDRip
Аудиокодек: MP3 2.0
Битрейт аудио: 128 kb/s
Полное имя : K:\11 - 14.avi
Формат : AVI
Формат/Информация : Audio Video Interleave
Размер файла : 743 Мбайт
Продолжительность : 1 ч. 25 м.
Общий поток : 1212 Кбит/сек
Программа кодирования : VirtualDubMod 1.5.10.2 (build 2540/release)
Библиотека кодирования : VirtualDubMod build 2540/release

Видео
Идентификатор : 0
Формат : MPEG-4 Visual
Профиль формата : Advanced Simple@L5
Параметр BVOP формата : 1
Параметр QPel формата : Нет
Параметр GMC формата : Без точки перехода
Параметр матрицы формата : Default (MPEG)
Идентификатор кодека : XVID
Идентификатор кодека/Подсказка : XviD
Продолжительность : 1 ч. 25 м.
Битрейт : 1075 Кбит/сек
Ширина : 688 пикс.
Высота : 384 пикс.
Соотношение сторон : 16:9
Частота кадров : 23,976 кадр/сек
Цветовое пространство : YUV
Подвыборка цветности : 4:2:0
Битовая глубина : 8 бит
Тип развёртки : Прогрессивная
Метод сжатия : С потерями
Бит/(Пиксели*Кадры) : 0.170
Размер потока : 659 Мбайт (89%)
Библиотека кодирования : XviD 1.2.1 (UTC 2008-12-04)

Аудио
Идентификатор : 1
Формат : MPEG Audio
Версия формата : Version 1
Профиль формата : Layer 3
Идентификатор кодека : 55
Идентификатор кодека/Подсказка : MP3
Продолжительность : 1 ч. 25 м.
Вид битрейта : Постоянный
Битрейт : 128 Кбит/сек
Канал(ы) : 2 канала(ов)
Частота : 48,0 КГц
Метод сжатия : С потерями
Размер потока : 78,4 Мбайт (11%)
Выравнивание : Соединение по промежуткам
Продолжительность промежутка : 42 мс. (1,00 видеокадр)
Время предзагрузки промежутка : 504 ms
Библиотека кодирования : LAME3.98r
Скриншоты:


Время раздачи: 24/7 (до 10 скачавших)
[NNM-Club.ru]_11 - 14.avi.torrent
 Торрент: Платиновая раздача  Зарегистрирован
 
Скачать


Примагнититься
 Зарегистрирован:   12 Ноя 2012 21:58:36
 Размер:   743 MB  (
 Рейтинг:   4,7 (Голосов: 43)
 Поблагодарили:   172
 Проверка:   Оформление проверено модератором 13 Ноя 2012 15:42:53
Как cкачать  ·  Как раздать  ·  Правильно оформить  ·  Поднять ратио!  
Maximus
Вольный стрелок
Uploader 100+
Стаж: 13 лет
Сообщений: 2781
Ratio: 25,129
Поблагодарили: 12675
100%
nnm-club.gif
artem timer писал(а):
Жанр: Комедия, Драма, Криминал

Скорее черный юмор, хотя и перечисленные жанры присутствуют. Необычный сюжет и подача + немного насилия и секса, да и любителям подумать, есть над чем поразмыслить. Стоит посмотреть!

_________________
Люди, которые читают книги, всегда будут управлять теми, кто смотрит телевизор.
socet111
Стаж: 8 лет 8 мес.
Сообщений: 509
Ratio: 13,588
100%
Откуда: Киев
ukraine.gif
Зрелищная киношка !!!
Niktorium
Стаж: 8 лет 7 мес.
Сообщений: 6
Ratio: 5,331
100%
Старенький, но хороший фильм !
Mr_Romizz
Стаж: 8 лет 5 мес.
Сообщений: 1539
Ratio: 2,614
100%
Откуда: Санкт-Петербург
russia.gif
да, фильм хорош и довольно необычен. вспомнить чтоль и пересмотреть? :нет:
Nymphetamin4ik
Стаж: 6 лет 11 мес.
Сообщений: 585
Ratio: 28,612
Раздал: 922 GB
Поблагодарили: 41443
100%
pirates.png
чем фильм хорош я так и не понял, нудятина и "убойный юмор" про оторванные пиписьки как-то не впечатлили :(
GodwinAkA​Chekist​
Стаж: 11 лет 3 мес.
Сообщений: 113
Ratio: 13,767
100%
Откуда: Москва
russia.gif
Отличный фильм. В своё время знатно позабавил))
baransata
Стаж: 8 лет 8 мес.
Сообщений: 11
Ratio: 3,093
87.5%
ukraine.gif
чем хорош ?а тем,что весь фильм это 1 минута жизни всех актеров
artem timer ®
Стаж: 9 лет 10 мес.
Сообщений: 1336
Ratio: 46,887
Раздал: 13,13 TB
Поблагодарили: 39578
100%
Откуда: город закатов
russia.gif
baransata писал(а): Перейти к сообщению
чем хорош ?а тем,что весь фильм это 1 минута жизни всех актеров


Посмотри поймешь!!! фильм реально хорош!!! из того гэ что в последнее время снимают, уж лучше старенькое пересмотреть!!!
Povarotti
Стаж: 9 лет
Сообщений: 227
Ratio: 2,001
18.99%
Откуда: UKRAINE
ukraine.gif
Хороший фильм!Посоветуйте,пожалуйста,что нить еще в этом духе!Спасибо! :клево:
Вася2640
Стаж: 9 лет 7 мес.
Сообщений: 5
Ratio: 1,485
100%
Povarotti писал(а): Перейти к сообщению
еще в этом духе!
Власть убеждений / The Power of Few (2013) Власть убеждений / The Power of Few (2013) HDRip
Показать сообщения:   
Начать новую тему   Ответить на тему    Торрент-трекер NNM-Club -> Зарубежное кино -> Зарубежные Фильмы (HD*Rip/LQ, DVDRip, SATRip, VHSRip) Часовой пояс: GMT + 3
Страница 1 из 1