Классический форум-трекер
canvas not supported
Нас вместе: 4 078 030

В другой стране / Da-reun na-ra-e-suh (2012) DVD9


 
 
RSS
Начать новую тему   Ответить на тему    Торрент-трекер NNM-Club -> Зарубежное кино -> Азиатское кино (DVD)
Автор Сообщение
Shuran80 ®
Свободный релизер
 
Стаж: 10 лет 5 мес.
Сообщений: 3187
Ratio: 1177,349
Раздал: 86,83 TB
Поблагодарили: 187263
100%
Откуда: Ленинград
ussr.gif
В другой стране / Da-reun na-ra-e-suh (2012) DVD9
Русское название: В другой стране
Оригинальное название: Da-reun na-ra-e-suh
Год выпуска: 2012
Производство: Южная Корея
Жанр: Драма

Продолжительность: 01:25:02
Перевод: Многоголосый закадровый [Лицензия]
Язык субтитров: Русский

Режиссер: Хон Сан Су
Актеры: Изабель Юппер, Квон Хэ Хё, Юнг Ю Ми, Со-ри Мун, Мун Санг Койн,
Ю Чжун-Сан, Юн Ю Юнг

Описание фильма:
Анна замужем и изменяет мужу. Другая Анна — разведена. Третья Анна — снимает кино. Все три однажды оказываются в одном городке, в одном отеле и на одном пляже. Встречаются с одними и теми же людьми, говорят одни и те же слова, попадают в похожие ситуации… Но окружающие не замечают этой странности. Ведь живут все три Анны в одной голове…


Дата мировой премьеры: 21 мая 2012
Дата российской премьеры: 18 октября 2012, «Другое кино»
Дата выхода DVD релиза: 7 ноября 2012, «Кармен Видео»

Качество видео: DVD9
Видеокодек: MPEG-2
Битрейт видео: ~8500 kbps
Размер кадра: PAL 16:9 (720x576@1024х576)
Аудио 1: AC3, 6 ch, 384 kbps (Русский)
Аудио 2: AC3, 2 ch, 192 kbps (Русский)
Аудио 3: AC3, 6 ch, 384 kbps (Английский)
Общее
Полное имя : V.Drugoy.Strane.2012.DVD9\VIDEO_TS\VTS_01_2.VOB
Формат : MPEG-PS
Размер файла : 1024 Мбайт
Продолжительность : 14 м.
Общий поток : 9620 Кбит/сек

Видео
Идентификатор : 224 (0xE0)
Формат : MPEG Video
Версия формата : Version 2
Профиль формата : Main@Main
Параметр BVOP формата : Да
Параметр матрицы формата : Выборочная
Параметр GOP формата : M=3, N=15
Продолжительность : 14 м.
Битрейт : 8500 Кбит/сек
Ширина : 720 пикселей
Высота : 576 пикселей
Соотношение сторон : 16:9
Частота кадров : 25,000 кадров/сек
Стандарт вещания : PAL
Цветовое пространство : YUV
Субдискретизация насыщенности : 4:2:0
Битовая глубина : 8 бит
Тип развёртки : Чересстрочная
Порядок развёртки : Верхнее поле первое
Метод сжатия : С потерями
Бит/(Пиксели*Кадры) : 0.820
Размер потока : 901 Мбайт (88%)

Аудио #1
Идентификатор : 189 (0xBD)-128 (0x80)
Формат : AC-3
Формат/Информация : Audio Coding 3
Расширение режима : CM (complete main)
Режим смешивания : DVD-Video
Продолжительность : 14 м.
Вид битрейта : Постоянный
Битрейт : 384 Кбит/сек
Каналы : 6 каналов
Расположение каналов : Front: L C R, Side: L R, LFE
Частота : 48,0 КГц
Битовая глубина : 16 бит
Метод сжатия : С потерями
Задержка видео : -712 мс.
Размер потока : 40,9 Мбайт (4%)

Аудио #2
Идентификатор : 189 (0xBD)-129 (0x81)
Формат : AC-3
Формат/Информация : Audio Coding 3
Расширение режима : CM (complete main)
Режим смешивания : DVD-Video
Продолжительность : 14 м.
Вид битрейта : Постоянный
Битрейт : 192 Кбит/сек
Каналы : 2 канала
Расположение каналов : Front: L R
Частота : 48,0 КГц
Битовая глубина : 16 бит
Метод сжатия : С потерями
Задержка видео : -680 мс.
Размер потока : 20,4 Мбайт (2%)

Аудио #3
Идентификатор : 189 (0xBD)-130 (0x82)
Формат : AC-3
Формат/Информация : Audio Coding 3
Расширение режима : CM (complete main)
Режим смешивания : DVD-Video
Продолжительность : 14 м.
Вид битрейта : Постоянный
Битрейт : 384 Кбит/сек
Каналы : 6 каналов
Расположение каналов : Front: L C R, Side: L R, LFE
Частота : 48,0 КГц
Битовая глубина : 16 бит
Метод сжатия : С потерями
Задержка видео : -712 мс.
Размер потока : 40,9 Мбайт (4%)

Текст
Идентификатор : 189 (0xBD)-32 (0x20)
Формат : RLE
Формат/Информация : Run-length encoding
Режим смешивания : DVD-Video
Продолжительность : 14 м.
Задержка видео : 1 с. 440 мс.

Меню
Title: V.Drugoy.Strane.2012.DVD9
Size: 5.83 Gb ( 6 109 248,00 KBytes ) - DVD-9
Enabled regions: 1, 2, 3, 4, 5, 6, 7, 8

VTS_01 :
Play Length: 00:00:01+01:25:00+00:00:01
Video: PAL 16:9 (720x576) VBR, Auto Letterboxed
Audio:
Russian (Dolby AC3, 6 ch)
Russian (Dolby AC3, 2 ch)
English (Dolby AC3, 6 ch)
Subtitles:
Russian

VTS_02 :
Play Length: 00:00:01+00:00:05+00:00:13
Video: PAL 16:9 (720x576) VBR, Auto Letterboxed
Audio:
Russian (Dolby AC3, 6 ch)

VTS_03 :
Play Length: 00:00:01+00:00:24+00:00:01
Video: PAL 16:9 (720x576) VBR, Auto Letterboxed
Audio:
Russian (Dolby AC3, 2 ch)

VTS_04 :
Play Length: 00:00:01+00:00:08+00:00:01
Video: PAL 16:9 (720x576) VBR, Auto Letterboxed
Audio:
Russian (Dolby AC3, 2 ch)

* Menus Information *

VIDEO_TS Menu
Video:
NTSC 4:3 (720x480) VBR
Auto Pan&Scan, Auto Letterboxed
Russian Language Unit :
Title Menu

VTS_01 Menu
Video:
PAL 16:9 (720x576) VBR
Auto Letterboxed
Audio:
Not specified (Dolby AC3, 2 ch)
Russian Language Unit :
Root Menu

VTS_02 Menu
Video:
NTSC 4:3 (720x480) VBR
Auto Pan&Scan, Auto Letterboxed
Language Unit :
Angle menu
Language Unit :
Root Menu
Language Unit :
Root Menu

VTS_03 Menu
Video:
NTSC 4:3 (720x480) VBR
Auto Pan&Scan, Auto Letterboxed
Language Unit :
Angle menu
Language Unit :
Root Menu
Chapter (PTT) Menu
Language Unit :
Root Menu
Chapter (PTT) Menu

VTS_04 Menu
Video:
NTSC 4:3 (720x480) VBR
Auto Pan&Scan, Auto Letterboxed
Language Unit :
Angle menu
Language Unit :
Root Menu
Chapter (PTT) Menu
Language Unit :
Скриншоты:




Время раздачи: Обычно с 19:00 до 00:00 :спит:
[NNM-Club.ru]_V.Drugoy.Strane.2012.DVD9.torrent
 Торрент: Золотая раздача  Зарегистрирован
 
Зарегистрируйтесь и скачайте торрент!
15,7 KB

 Зарегистрирован:   19 Ноя 2012 11:12:52
 Размер:   5,83 GB  (
 Рейтинг:    (Голосов: 8)
 Поблагодарили:   52
 Проверка:   Оформление проверено модератором 19 Ноя 2012 13:53:16
Как cкачать  ·  Как раздать  ·  Правильно оформить  ·  Поднять ратио!  

_________________
Внимание! Временно отсутствую на своих раздачах. Просьба понять и простить. )
Показать сообщения:   
Начать новую тему   Ответить на тему    Торрент-трекер NNM-Club -> Зарубежное кино -> Азиатское кино (DVD) Часовой пояс: GMT + 3
Страница 1 из 1