Классический форум-трекер
canvas not supported
Нас вместе: 4 079 130

Развивающий уход за младенцем (2003) DVDRip


 
 
RSS
Начать новую тему   Ответить на тему    Торрент-трекер NNM-Club -> Видео -> Обучающее Видео для родителей
Автор Сообщение
SirSatana ®
Стаж: 7 лет 8 мес.
Сообщений: 1362
Ratio: 26,434
Поблагодарили: 8402
100%
ukraine.gif
Развивающий уход за младенцем (2003) DVDRip
Русское название: Развивающий уход за младенцем
Год выпуска: 2003
Производство: Россия
Жанр: Для родителей, Видеоуроки, Видеоруководство

Перевод: Оригинал

Описание фильма:
Вы хотите вырастить своего ребенка здоровым, всесторонне развитым, любящим и заботливым?
Тогда этот видео диск для вас!

Рождение ребенка привносит много хлопот. И порой мама не представляет, как все успеть, не говоря уже о дополнительных занятиях с новорожденным. В нашем видеопособии вы увидите, как это становится возможным.

Мы познакомим Вас с развивающими методиками на примере одного дня из жизни семьи.
Все повседневные действия с малышом мы наполняем особым смыслом. Каждое прикосновение и каждое слово родителей одновременно являются для малыша и общением, и уроками лечебной физкультуры, речи, интеллектуального развития, и знакомят малыша с окружающим миром.

"Развивающий уход за младенцем" - это стиль ухода за ребенком, обеспечивающий его максимальное развитие. Все повседневные действия с малышом мы наполняем дополнительным смыслом. Каждое прикосновение и каждое слово родителей одновременно являются для малыша и общением, и уроками лечебной физкультуры, речи, интеллектуального развития, и знакомят малыша с окружающим миром.
Пусть занятия с малышом принесут радость всей Вашей семье!
Данное учебное видеопособие для родителей является приложением к оздоровительно-экологической программе "К здоровой семье через детский сад" и дополнением учебника "Руководство по подготовке родителей к рождению и воспитанию здорового ребенка" (рекомендовано министерством здравоохранения РФ)

Продолжительность: 2:19:52
Качество видео: DVDRip


Видеокодек: DivX 5
Битрейт видео: ~996 Кбит/с
Размер кадра: 720x540
Аудиокодек: MP3, 2ch
Битрейт аудио: 128 Кбит/с
Формат: AVI (divx)
Отзыв педиатра:

В целом, хорошая обучающая программа, с удобным интерфейсом.
Есть несколько неточностей в предлагаемых рекомендациях.
1. Не нужно рекомендовать раннее приучение к горшку (с первых месяцев жизни). Нервная система ребенка созревает для сознательного контроля мочевого пузыря не раньше, чем к 18 месяцам. Условный рефлекс у грудного ребенка можно выработать, но он угасает после года, и в итоге обычно такие дети вырабатывают туалетные навыки, наоборот, позже.
2. Постоянное ношение ребенка в слинге ограничивает его подвижность и не является полезным. По разным рекомендациям, время нахождения ребенка в слинге не должно превышать 2-4 часа в день. Особо нужно было подчеркнуть вопросы безопасности при использовании слинга. Если ребенку меньше 4-х месяцев, то носить его в слинге нужно так, чтобы маме постоянно было видно лицо ребенка. Вертикальное положение в слинге до 5-6 месяцев можно допускать только на несколько минут, а не как постоянное положение. Подробнее о безопасности можно найти информацию в интернете.
3. Использование народных песен при уходе за ребенком не должно превращаться в ритуал. Это уместно только тогда, когда каждая конкретная колыбельная является естественной частью семейной культуры. А если мама ничего в этих колыбельных не чувствует, то и петь их своему ребенку она не может. Колыбельные и пестовательные песенки лучше подобрать себе самостоятельно, во время беременности.
4. Показанный в программе материнский массаж - по интенсивности ближе к лечебному массажу. Для материнского массажа рекомендуются только поверхностные приемы - поглаживание и растирание. Глубокие приемы (разминание) - не рекомендуются. То есть, комплекс массажа дан хороший, но выполнять его нужно полегче, чем показано, более нежно.
General
Complete name : F:\Развивающий уход за младенцем.divx
Format : AVI
Format/Info : Audio Video Interleave
File size : 1.11 GiB
Duration : 2h 19mn
Overall bit rate : 1 134 Kbps

Video
ID : 0
Format : MPEG-4 Visual
Format settings, BVOP : 1
Format settings, QPel : No
Format settings, GMC : No warppoints
Format settings, Matrix : Default (H.263)
Muxing mode : Packed bitstream
Codec ID : DX50
Codec ID/Hint : DivX 5
Duration : 2h 19mn
Bit rate : 996 Kbps
Width : 720 pixels
Height : 540 pixels
Display aspect ratio : 4:3
Frame rate : 25.000 fps
Color space : YUV
Chroma subsampling : 4:2:0
Bit depth : 8 bits
Scan type : Progressive
Compression mode : Lossy
Bits/(Pixel*Frame) : 0.102
Stream size : 997 MiB (88%)
Title : Video
Writing library : DivX 3330

Audio
ID : 1
Format : MPEG Audio
Format version : Version 1
Format profile : Layer 3
Mode : Joint stereo
Mode extension : MS Stereo
Codec ID : 55
Codec ID/Hint : MP3
Duration : 2h 19mn
Bit rate mode : Constant
Bit rate : 128 Kbps
Channel(s) : 2 channels
Sampling rate : 44.1 KHz
Compression mode : Lossy
Stream size : 128 MiB (11%)
Alignment : Split accross interleaves
Interleave, duration : 40 ms (1.00 video frame)
Interleave, preload duration : 500 ms
Title : Audio
Скриншоты:


Время раздачи: 24/7 - до 5 скачавших, потом по ситуации

Развивающий уход за младенцем (ПРОродительство) (2010) DVD9
[NNM-Club.ru]_Razvivaushiu yhod za mladencem.2003.DVDRip.divx.torrent
 Торрент: Платиновая раздача  Зарегистрирован
 
Скачать


Примагнититься
 Зарегистрирован:   07 Мар 2012 21:39:48
 Размер:   1,11 GB  (
 Рейтинг:   4,8 (Голосов: 26)
 Поблагодарили:   149
 Проверка:   Оформление проверено модератором 07 Мар 2012 21:49:44
Как cкачать  ·  Как раздать  ·  Правильно оформить  ·  Поднять ратио!  
Загрузка...
Krukov_Aleksey
Стаж: 7 лет 5 мес.
Сообщений: 51
Ratio: 217,43
55.79%
Спасибо
Показать сообщения:   
Начать новую тему   Ответить на тему    Торрент-трекер NNM-Club -> Видео -> Обучающее Видео для родителей Часовой пояс: GMT + 3
Страница 1 из 1