Классический форум-трекер
canvas not supported
Нас вместе: 4 081 818

V.A. - Комсомольская Юность Моя (2008) [FLAC|Lossless]<Pop, Retro>


 
 
RSS
Начать новую тему   Ответить на тему    Торрент-трекер NNM-Club -> Pop -> Советская эстрада, Ретро (Lossless)
Автор Сообщение
Beijing65 ®
Модератор Музыки
RG Music
 
Стаж: 9 лет 2 мес.
Сообщений: 2465
Ratio: 1683,331
Поблагодарили: 129699
100%
V.A. - Комсомольская Юность Моя (2008)
Лейбл: Мелодия
Каталог: MEL CD 60 00769
Год: 2008
Жанр: Pop, Retro
Продолжительность: 01:14:50

Кодек: FLAC
Битрейт: Lossless

Трек лист:
01. Иосиф Кобзон - Мы поём о Комсомольске
02. Лев Лещенко - Начало
03. Валентина Левко - Орлёнок
04. Иван Савчук и Константин Герасимов - Комсомольцы-добровольцы
05. Иосиф Кобзон - Мне доверена песня
06. Валентина Левко - А годы летят
07. Виктор Берковский и Дмитрий Богданов - Гренада
08. Марк Бернес - Москвичи
09. Николай Рыбников - Когда весна придёт
10. Юрий Мазурок - Россия - Родина моя
11. Иосиф Кобзон - Прощание с Братском
12. Юрий Богатиков - Спят курганы тёмные
13. Александр Градский - Как молоды мы были
14. Юрий Пузырёв и Сергей Фёдоров - Песня о тревожной молодости
15. Евгений Мартынов - Встреча друзей
16. Тамара Гвердцители - Юность моя
17. Иосиф Кобзон - Не расстанусь с комсомолом
18. Игорь Сорокин - Комсомольская юность
19. ВИА ''Самоцветы'' - За того парня
20. Эдуард Хиль - Серёжка ольховая
21. Алла Абдалова и Лев Лещенко - Обещание
22. Иосиф Кобзон - Комсомол, комсомол, комсомол
Код:

Exact Audio Copy V1.0 beta 3 from 29. August 2011

EAC extraction logfile from 14. November 2012, 13:55

Various Artists / Комсомольская юность моя

Used drive  : PLEXTOR DVDR   PX-L890SA   Adapter: 1  ID: 0

Read mode               : Secure
Utilize accurate stream : Yes
Defeat audio cache      : Yes
Make use of C2 pointers : No

Read offset correction                      : 6
Overread into Lead-In and Lead-Out          : No
Fill up missing offset samples with silence : Yes
Delete leading and trailing silent blocks   : No
Null samples used in CRC calculations       : Yes
Used interface                              : Installed external ASPI interface

Used output format              : User Defined Encoder
Selected bitrate                : 1024 kBit/s
Quality                         : High
Add ID3 tag                     : No
Command line compressor         : C:\Program Files (x86)\Exact Audio Copy\wavpack.exe
Additional command line options : -hlm %source%

TOC of the extracted CD

     Track |   Start  |  Length  | Start sector | End sector
    ---------------------------------------------------------
        1  |  0:00.00 |  3:58.70 |         0    |    17919
        2  |  3:58.70 |  2:51.72 |     17920    |    30816
        3  |  6:50.67 |  4:18.61 |     30817    |    50227
        4  | 11:09.53 |  3:22.31 |     50228    |    65408
        5  | 14:32.09 |  2:42.62 |     65409    |    77620
        6  | 17:14.71 |  3:10.60 |     77621    |    91930
        7  | 20:25.56 |  3:11.56 |     91931    |   106311
        8  | 23:37.37 |  2:28.25 |    106312    |   117436
        9  | 26:05.62 |  3:25.47 |    117437    |   132858
       10  | 29:31.34 |  4:08.42 |    132859    |   151500
       11  | 33:40.01 |  2:56.71 |    151501    |   164771
       12  | 36:36.72 |  2:24.19 |    164772    |   175590
       13  | 39:01.16 |  5:14.48 |    175591    |   199188
       14  | 44:15.64 |  4:08.10 |    199189    |   217798
       15  | 48:23.74 |  4:24.04 |    217799    |   237602
       16  | 52:48.03 |  4:07.31 |    237603    |   256158
       17  | 56:55.34 |  2:36.71 |    256159    |   267929
       18  | 59:32.30 |  2:32.50 |    267930    |   279379
       19  | 62:05.05 |  3:54.58 |    279380    |   296987
       20  | 65:59.63 |  2:26.55 |    296988    |   307992
       21  | 68:26.43 |  2:47.64 |    307993    |   320581
       22  | 71:14.32 |  3:36.20 |    320582    |   336801

Range status and errors

Selected range

     Filename D:\wwphil\Various Artists - Комсомольская юность моя\Various Artists - Комсомольская юность моя.wav

     Peak level 100.0 %
     Extraction speed 3.5 X
     Range quality 100.0 %
     Test CRC 93B87362
     Copy CRC 93B87362
     Copy OK

No errors occurred

AccurateRip summary

Track  1  not present in database
Track  2  not present in database
Track  3  not present in database
Track  4  not present in database
Track  5  not present in database
Track  6  not present in database
Track  7  not present in database
Track  8  not present in database
Track  9  not present in database
Track 10  not present in database
Track 11  not present in database
Track 12  not present in database
Track 13  accurately ripped (confidence 1)  [0FE00387]  (AR v1)
Track 14  not present in database
Track 15  not present in database
Track 16  not present in database
Track 17  not present in database
Track 18  not present in database
Track 19  accurately ripped (confidence 1)  [C28C4F92]  (AR v1)
Track 20  accurately ripped (confidence 1)  [E8E51DDC]  (AR v1)
Track 21  not present in database
Track 22  not present in database

 3 трек(и) скопированы точно
19 трек(и) не содержатся в базе AccurateRip

Some tracks could not be verified as accurate

End of status report

==== Log checksum A5E8E9B4EEA4666BD699A5C6203C9529202CE1DCFB35F4D325A56078BD402CF6 ====
Код:

-----------------------

DON'T MODIFY THIS FILE

-----------------------

PERFORMER: auCDtect Task Manager, ver. 1.5.1RC4 build 1.5.1.5
Copyright (c) 2008-2010 y-soft. All rights reserved
http://y-soft.org

ANALYZER: auCDtect: CD records authenticity detector, version 0.8.2
Copyright (c) 2004 Oleg Berngardt. All rights reserved.
Copyright (c) 2004 Alexander Djourik. All rights reserved.

FILE: Various Artists - Комсомольская юность моя.flac
  Size: 425165831 Hash: 17521473A154070C76E06B6F9F2AD3A5 Accuracy: -m0
  Conclusion: CDDA 99%
  Signature: C7222F8869EA2D0EAAC62412861711DE1E9E8D58
Код:
REM GENRE "Retro"
REM DATE 2008
REM DISCID 38118A16
REM COMMENT "ExactAudioCopy v1.0b3"
PERFORMER "Various Artists"
TITLE "Комсомольская юность моя"
FILE "Various Artists - Комсомольская юность моя.flac" WAVE
  TRACK 01 AUDIO
    TITLE "Мы поём о Комсомольске"
    PERFORMER "Иосиф Кобзон"
    FLAGS DCP
    INDEX 01 00:00:00
  TRACK 02 AUDIO
    TITLE "Начало"
    PERFORMER "Лев Лещенко"
    FLAGS DCP
    INDEX 00 03:56:70
    INDEX 01 03:58:70
  TRACK 03 AUDIO
    TITLE "Орлёнок"
    PERFORMER "Валентина Левко"
    FLAGS DCP
    INDEX 00 06:48:67
    INDEX 01 06:50:67
  TRACK 04 AUDIO
    TITLE "Комсомольцы-добровольцы"
    PERFORMER "Иван Савчук и Константин Герасимов"
    FLAGS DCP
    INDEX 00 11:07:53
    INDEX 01 11:09:53
  TRACK 05 AUDIO
    TITLE "Мне доверена песня"
    PERFORMER "Иосиф Кобзон"
    FLAGS DCP
    INDEX 00 14:30:09
    INDEX 01 14:32:09
  TRACK 06 AUDIO
    TITLE "А годы летят"
    PERFORMER "Валентина Левко"
    FLAGS DCP
    INDEX 00 17:12:71
    INDEX 01 17:14:71
  TRACK 07 AUDIO
    TITLE "Гренада"
    PERFORMER "Виктор Берковский и Дмитрий Богданов"
    FLAGS DCP
    INDEX 00 20:23:56
    INDEX 01 20:25:56
  TRACK 08 AUDIO
    TITLE "Москвичи"
    PERFORMER "Марк Бернес"
    FLAGS DCP
    INDEX 00 23:35:37
    INDEX 01 23:37:37
  TRACK 09 AUDIO
    TITLE "Когда весна придёт"
    PERFORMER "Николай Рыбников"
    FLAGS DCP
    INDEX 00 26:03:62
    INDEX 01 26:05:62
  TRACK 10 AUDIO
    TITLE "Россия - Родина моя"
    PERFORMER "Юрий Мазурок"
    FLAGS DCP
    INDEX 00 29:29:34
    INDEX 01 29:31:34
  TRACK 11 AUDIO
    TITLE "Прощание с Братском"
    PERFORMER "Иосиф Кобзон"
    FLAGS DCP
    INDEX 00 33:38:01
    INDEX 01 33:40:01
  TRACK 12 AUDIO
    TITLE "Спят курганы тёмные"
    PERFORMER "Юрий Богатиков"
    FLAGS DCP
    INDEX 00 36:34:72
    INDEX 01 36:36:72
  TRACK 13 AUDIO
    TITLE "Как молоды мы были"
    PERFORMER "Александр Градский"
    FLAGS DCP
    INDEX 00 38:59:16
    INDEX 01 39:01:16
  TRACK 14 AUDIO
    TITLE "Песня о тревожной молодости"
    PERFORMER "Юрий Пузырёв и Сергей Фёдоров"
    FLAGS DCP
    INDEX 00 44:13:64
    INDEX 01 44:15:64
  TRACK 15 AUDIO
    TITLE "Встреча друзей"
    PERFORMER "Евгений Мартынов"
    FLAGS DCP
    INDEX 00 48:21:74
    INDEX 01 48:23:74
  TRACK 16 AUDIO
    TITLE "Юность моя"
    PERFORMER "Тамара Гвердцители"
    FLAGS DCP
    INDEX 00 52:46:03
    INDEX 01 52:48:03
  TRACK 17 AUDIO
    TITLE "Не расстанусь с комсомолом"
    PERFORMER "Иосиф Кобзон"
    FLAGS DCP
    INDEX 00 56:53:34
    INDEX 01 56:55:34
  TRACK 18 AUDIO
    TITLE "Комсомольская юность"
    PERFORMER "Игорь Сорокин"
    FLAGS DCP
    INDEX 00 59:30:30
    INDEX 01 59:32:30
  TRACK 19 AUDIO
    TITLE "За того парня"
    PERFORMER "ВИА ''Самоцветы''"
    FLAGS DCP
    INDEX 00 62:03:05
    INDEX 01 62:05:05
  TRACK 20 AUDIO
    TITLE "Серёжка ольховая"
    PERFORMER "Эдуард Хиль"
    FLAGS DCP
    INDEX 00 65:57:63
    INDEX 01 65:59:63
  TRACK 21 AUDIO
    TITLE "Обещание"
    PERFORMER "Алла Абдалова и Лев Лещенко"
    FLAGS DCP
    INDEX 00 68:24:43
    INDEX 01 68:26:43
  TRACK 22 AUDIO
    TITLE "Комсомол, комсомол, комсомол"
    PERFORMER "Иосиф Кобзон"
    FLAGS DCP
    INDEX 00 71:12:32
    INDEX 01 71:14:32


Время раздачи: С 11:30 до 18:00 и с 20:00 до 08:00 Мск., до 5-ти скачавших


Поглощение/вытеснение
Только с согласия релизера

Beijing65
VA - Komsomol'skaya YUnost' Moya - 2008 [NNM-Club].torrent
 Торрент: Платиновая раздача  Зарегистрирован
 
Скачать


 Зарегистрирован:   04 Дек 2012 10:02:44
 Размер:   407 MB  (
 Рейтинг:   4,7 (Голосов: 41)
 Поблагодарили:   134
 Проверка:   Оформление проверено модератором 04 Дек 2012 10:05:34
Как cкачать  ·  Как раздать  ·  Правильно оформить  ·  Поднять ратио!  
wwphil
Стаж: 12 лет 4 мес.
Сообщений: 4
Ratio: 12,27
50%
russia.gif
Уж извините, конечно, но (вырезано) ,в отличие от простых воришек на форуме, выкладывать переделку во флак, когда в логе чёрным по-белому указан кодек - wavpack, тем более в оригинале на нетлабе я выкладывал в контейнер wv.iso, видно , что даже не только не слушали, даже посмотреть лог лень было после жуликов с аваста, нехорошо, товарищ, стыдно, я бы сказал.

 !  Примечание от Колыч:
2.15. Публично предъявлять претензии и обсуждать действия или бездействия Модератора или Администратора. Участник форума, считающий действия Модератора неправомерными, может высказать своё несогласие Модератору по почте или в личном сообщении. Если от Модератора нет ответа в разумные сроки или ответ, по мнению участника, необоснованный, то последний в установленном порядке вправе обжаловать действия Модератора в специальной теме Пользовательские жалобы на модераторов и в качестве аргументов предоставить Администрации переписку с Модератором. Решения Администрации являются окончательными и обсуждению не подлежат.
Beijing65 ®
Модератор Музыки
RG Music
 
Стаж: 9 лет 2 мес.
Сообщений: 2465
Ratio: 1683,331
Поблагодарили: 129699
100%
wwphil
Добрейшего Времени суток. :приветствую:
Я на нетлаб не хожу и там не зарегистрирован, в чем скачал в том и выложил, рип хороший, спасибо автору.
Непонятны выражения - воришки, жулики - вы, что сами исполнили все эти песни, выпустили их на СД, да еще и разместили рип на нетлабе (или еще где), а воришки и жулики нагло выложили это на других ресурсах?
Нехорошо товарищ, стыдно, я бы сказал, присваивать себе чужие права, лучше бы вы так присваивали себе чужие обязанности.
:пока:
Показать сообщения:   
Начать новую тему   Ответить на тему    Торрент-трекер NNM-Club -> Pop -> Советская эстрада, Ретро (Lossless) Часовой пояс: GMT + 3
Страница 1 из 1