Классический форум-трекер
canvas not supported
Нас вместе: 4 079 473

Проклятье 3D / Sadako 3D (2012) DVD5


 
 
RSS
Начать новую тему   Ответить на тему    Торрент-трекер NNM-Club -> Зарубежное кино -> Азиатское кино (DVD)
Автор Сообщение
Саша 1992 ®
Модератор Видео
Стаж: 7 лет 10 мес.
Сообщений: 1517
Ratio: 470,027
Раздал: 43,95 TB
Поблагодарили: 129210
100%
russia.gif
Проклятье 3D / Sadako 3D (2012) DVD5
Русское название: Проклятье 3D
Оригинальное название: Sadako 3D
Год выпуска: 2012
Производство: Япония / Kadokawa Pictures, Kansai Telecasting (KTV), Shizuoka Telecasting
Жанр: Ужасы, Триллер
Описание фильма:
В школе для девочек ходят слухи, что в Интернет есть «проклятый» файл, в котором запечатлено самоубийство. Все, кто увидят это видео, убивают себя. Поначалу учительница не верит слухам, но когда одна из учениц кончает с собой, женщина решает разобраться. Отыскав в Интернете злополучный файл, она едва не погибает вместе со своим бойфрендом. Ей удается узнать, что файл пытается вызвать к жизни безумную Садако, чье проклятье распространялось через видеокассету в предыдущих фильмаx. И ему это удается. Героине предстоит финальная битва с Садако за свою жизнь и жизнь своего любимого.
Режиссер: Цутому Ханабуса
Актеры: Сатоми Ишихара, Коджи Сето, Тсутому Такахаши, Шота Сомея, Хикари Такара, Юсуке Ямамото, Рёусеи Таяма, Аи Хашимото
Продолжительность: 01:32:13
Перевод: Дублированный [лицензия]
Субтитры: Отсутствуют

Дата мировой премьеры: 12 мая 2012
Дата российской премьеры: 2 августа 2012, «Каравелла DDC»
Дата выхода DVD релиза: 6 ноября 2012, «Флагман-Трейд»
Качество видео: DVD5
Видеокодек: MPEG-2
Битрейт видео: ~6817 Кбит/сек
Размер кадра: PAL 16:9 (720x576@1024х576)
Аудиокодек: AC3 5.1
Битрейт аудио: 448 Кбит/сек
Общее
Полное имя : C:\ВИДЕО\Sadako 3D (2012) DVD5\VIDEO_TS\VTS_01_1.VOB
Формат : MPEG-PS
Размер файла : 1024 Мбайт
Продолжительность : 59 с.
Режим общего битрейта : Переменный
Общий поток : 145 Мбит/сек

Видео
Идентификатор : 224 (0xE0)
Формат : MPEG Video
Версия формата : Version 2
Профиль формата : Main@Main
Параметр BVOP формата : Да
Параметр матрицы формата : Выборочная
Параметр GOP формата : Variable
Продолжительность : 59 с.
Вид битрейта : Переменный
Битрейт : 142 Мбит/сек
Максимальный битрейт : 9000 Кбит/сек
Ширина : 720 пикселей
Высота : 576 пикселей
Соотношение сторон : 16:9
Частота кадров : 25,000 кадров/сек
Стандарт вещания : PAL
Цветовое пространство : YUV
Субдискретизация насыщенности : 4:2:0
Битовая глубина : 8 бит
Тип развёртки : Чересстрочная
Порядок развёртки : Верхнее поле первое
Метод сжатия : С потерями
Бит/(Пиксели*Кадры) : 13.710
Размер потока : 1000 Мбайт (98%)

Аудио
Идентификатор : 189 (0xBD)-128 (0x80)
Формат : AC-3
Формат/Информация : Audio Coding 3
Расширение режима : CM (complete main)
Параметр Endianness формата : Big
Режим смешивания : DVD-Video
Продолжительность : 58 с.
Вид битрейта : Постоянный
Битрейт : 448 Кбит/сек
Каналы : 6 каналов
Расположение каналов : Front: L C R, Side: L R, LFE
Частота : 48,0 КГц
Битовая глубина : 16 бит
Метод сжатия : С потерями
Размер потока : 3,14 Мбайт (0%)

Меню
Title: Sadako 3D (2012) DVD5
Size: 4.37 Gb ( 4 579 716,00 KBytes ) - DVD-5
Enabled regions: 1, 2, 3, 4, 5, 6, 7, 8

VTS_01 :
Play Length: 01:32:13
Video: PAL 16:9 (720x576) VBR, Auto Letterboxed
Audio:
Russian (Dolby AC3, 6 ch)

* Menus Information *

VIDEO_TS Menu
Video:
PAL 16:9 (720x576) VBR
Auto Letterboxed
Audio:
Not specified (Dolby AC3, 2 ch)
Russian Language Unit :
Title Menu

VTS_01 Menu
Video:
PAL 16:9 (720x576) VBR
Auto Letterboxed
Audio:
Not specified (Dolby AC3, 2 ch)
Russian Language Unit :
Root Menu
Исходник : DVD9 (6.05 Гб) [лицензия, PAL 16:9]
Убрано : заставки, предупреждения
Сжатие фильма : 30.7 % сжатия (без учета ручного перераспределения битрейта, за счет большего сжатия конечных титров).
Использовались программы:DVDRemakePro
Rebuilder и CCE (Cinema Craft Encoder), 5 проходов
Работоспособность проверена на софтовом плеере Windows Media и бытовом LG
Скриншоты:


Время раздачи: С 10:00 до 22:00
[NNM-Club.ru]_Sadako 3D (2012) DVD5.torrent
 Торрент: Золотая раздача  Зарегистрирован
 
Зарегистрируйтесь и скачайте торрент!
11,7 KB

 Зарегистрирован:   21 Дек 2012 17:29:04
 Размер:   4,37 GB  (
 Рейтинг:   3,8 (Голосов: 14)
 Поблагодарили:   47
 Проверка:   Оформление проверено модератором 24 Дек 2012 14:27:35
Как cкачать  ·  Как раздать  ·  Правильно оформить  ·  Поднять ратио!  
Показать сообщения:   
Начать новую тему   Ответить на тему    Торрент-трекер NNM-Club -> Зарубежное кино -> Азиатское кино (DVD) Часовой пояс: GMT + 3
Страница 1 из 1