Классический форум-трекер
canvas not supported
Нас вместе: 4 079 246

Вздох / Soom (2007) DVD5


 
 
RSS
Начать новую тему   Ответить на тему    Торрент-трекер NNM-Club -> Зарубежное кино -> Азиатское кино (DVD)
Автор Сообщение
Kuzebay ®
Стаж: 7 лет 6 мес.
Сообщений: 118
Ratio: 83,697
Поблагодарили: 3261
100%
Вздох / Soom (2007) DVD5
Русское название: Вздох
Оригинальное название: Soom
Год выпуска: 2007
Жанр: Драма

Описание фильма:
Cнятая за два месяца c бюджетом $400,500 картина "Вздох", почти целиком решена в интерьерах двух комнат. Тюремная камера и четверо смертников в ней. Семейное гнездо с заложницей женой, не чувствующей любви. Девушка решается на парадоксальную акцию — она ходит на встречи с одним из смертников и устраивает ему красочные шоу, заставляя влюбиться в себя. Для чего ей это надо, ведь молчаливый смертник с суицидальным синдромом обречен, становится ясно лишь в финале. И в смысле загадочности, казалось бы, понятных событий, у Ким Ки-Дука в порядке. Мы не разгадаем его головоломку до самого последнего кадра. А разгадав, еще придется как следует подумать над хитрой формулой режиссерской мысли...

Режиссер: Ким Ки Дук / Kim Ki-duk
Актеры: Чжэнь Чжан, In-Hyeong Gang, Юнг Ву Ха, Ким Ки Дук, Пак Чи А

Продолжительность: 01:24:02
Перевод: Многоголосый закадровый

Дополнительные материалы: нет



Видеокодек: MPEG-2
Битрейт видео: ~5549 Кбит/сек
Размер кадра: NTSC 16:9 (720x480) VBR, Auto Letterboxed
Качество видео: DVD5

Аудио 1: Русское: 48 kHz, AC3, 3/2 (L,C,R,l,r) + LFE ch, ~448.00 kbps avg |Многоголосый закадровый|
Аудио 2: Корейское: 48 kHz, DTS, 3/2 (L,C,R,l,r) + LFE ch, ~768.00
Cубтитры: английские, русские
Title:
Size: 4.15 Gb ( 4 351 864 KBytes ) - DVD-5
Enabled regions: 1, 2, 3, 4, 5, 6, 7, 8

VTS_01 :
Play Length:
Video: NTSC 4:3 (720x480) VBR

VTS_02 :
Play Length: 00:00:20
Video: NTSC 4:3 (720x480) VBR
Audio:
Not specified (Dolby AC3, 2 ch)

VTS_03 :
Play Length: 01:24:02
Video: NTSC 16:9 (720x480) VBR, Auto Letterboxed
Audio:
Russian (Dolby AC3, 6 ch)
Korean (DTS, 6 ch)
Subtitles:
English
Russian
Формат : MPEG-PS
Размер файла : 1024 Мбайт
Продолжительность : 20 м.
Режим общего битрейта : Переменный
Общий поток : 6889 Кбит/сек

Видео
Идентификатор : 224 (0xE0)
Формат : MPEG Video
Версия формата : Version 2
Профиль формата : Main@Main
Параметр BVOP формата : Да
Параметр матрицы формата : Выборочная
Параметр GOP формата : M=3, N=15
Продолжительность : 20 м.
Вид битрейта : Переменный
Битрейт : 5549 Кбит/сек
Максимальный битрейт : 8000 Кбит/сек
Ширина : 720 пикселей
Высота : 480 пикселей
Соотношение сторон : 16:9
Частота кадров : 23,976 кадра/сек
Стандарт вещания : NTSC
Цветовое пространство : YUV
Субдискретизация насыщенности : 4:2:0
Битовая глубина : 8 бит
Тип развёртки : Прогрессивная
Порядок развёртки : 2:3 Pulldown
Метод сжатия : С потерями
Бит/(Пиксели*Кадры) : 0.670
Размер потока : 825 Мбайт (81%)

Аудио #1
Идентификатор : 189 (0xBD)-128 (0x80)
Формат : AC-3
Формат/Информация : Audio Coding 3
Расширение режима : CM (complete main)
Режим смешивания : DVD-Video
Продолжительность : 20 м.
Вид битрейта : Постоянный
Битрейт : 448 Кбит/сек
Каналы : 6 каналов
Расположение каналов : Front: L C R, Side: L R, LFE
Частота : 48,0 КГц
Битовая глубина : 16 бит
Метод сжатия : С потерями
Задержка видео : -328 мс.
Размер потока : 66,6 Мбайт (7%)

Аудио #2
Идентификатор : 189 (0xBD)-137 (0x89)
Формат : DTS
Формат/Информация : Digital Theater Systems
Режим смешивания : DVD-Video
Продолжительность : 20 м.
Вид битрейта : Постоянный
Битрейт : 755 Кбит/сек
Каналы : 6 каналов
Расположение каналов : Front: L C R, Side: L R, LFE
Частота : 48,0 КГц
Битовая глубина : 24 бит
Метод сжатия : С потерями
Задержка видео : -382 мс.
Размер потока : 112 Мбайт (11%)

Меню
Скриншоты:


Время раздачи: 24/7 - круглосуточно
[NNM-Club.ru]_Soom.2007.DVD5.torrent
 Торрент: Платиновая раздача  Зарегистрирован
 
Скачать


 Зарегистрирован:   19 Янв 2013 17:25:08
 Размер:   4,15 GB  (
 Рейтинг:   4,8 (Голосов: 15)
 Поблагодарили:   49
 Проверка:   Оформление проверено модератором 20 Янв 2013 18:57:59
Как cкачать  ·  Как раздать  ·  Правильно оформить  ·  Поднять ратио!  
Показать сообщения:   
Начать новую тему   Ответить на тему    Торрент-трекер NNM-Club -> Зарубежное кино -> Азиатское кино (DVD) Часовой пояс: GMT + 3
Страница 1 из 1