Классический форум-трекер
canvas not supported
Нас вместе: 4 079 097

Михаил Жванецкий - Весь Жванецкий (1994) [M4B/AAC]


 
 
RSS
Начать новую тему   Ответить на тему    Торрент-трекер NNM-Club -> Аудио и Видео -> Аудиокниги (AAC)
Автор Сообщение
Microsoft SQL ®
Uploader 500+
Стаж: 8 лет 8 мес.
Сообщений: 2023
Ratio: 4746,225
Поблагодарили: 53189
100%
israel.gif
Михаил Жванецкий - Весь Жванецкий (1994) [M4B/AAC]
Автор: Михаил Жванецкий
Название: Весь Жванецкий
Год: 1994
Жанр: Юмор
Читает: Михаил Жванецкий
Продолжительность: 06:06:58
Аудиокодек: AAC
Битрейт аудио: ~128-266 kbps

Описание:
То, над чем мы смеемся всю жизнь... В программу "Весь Жванецкий" вошли избранные миниатюры от начала творческой деятельности до середины 90-х годов... Михаил Жванецкий лично прочитал свои произведения, а потом лично прокомментировал их на своей даче в Одессе...

Оцифровка: Microsoft SQL
Общее
Полное имя : \Весь Жванецкий\_Возле моря.m4a
Формат : MPEG-4
Профиль формата : Apple audio with iTunes info
Идентификатор кодека : M4A
Размер файла : 8,09 Мбайт
Продолжительность : 8 м. 32 с.
Режим общего битрейта : Переменный
Общий поток : 133 Кбит/сек
Альбом : Весь Жванецкий
Трек : Возле моря
Исполнитель : М.Жванецкий
Жанр : Speech
Дата записи : 1994
Дата кодирования : UTC 2013-01-22 21:43:53
Дата пометки : UTC 2013-01-22 21:44:13
Программа кодирования : iTunes 11.0.1.12
Encoding Params : (Binary)

Аудио
Идентификатор : 1
Формат : AAC
Формат/Информация : Advanced Audio Codec
Профиль формата : LC
Идентификатор кодека : 40
Продолжительность : 8 м. 32 с.
Вид битрейта : Переменный
Битрейт : 128 Кбит/сек
Максимальный битрейт : 166 Кбит/сек
Каналы : 1 канал
Расположение каналов : Front: C
Частота : 44,1 КГц
Метод сжатия : С потерями
Размер потока : 8,00 Мбайт (99%)
Дата кодирования : UTC 2013-01-22 21:43:53
Дата пометки : UTC 2013-01-22 21:44:13

Общее
Полное имя : \Весь Жванецкий\_Короткие 1.m4a
Формат : MPEG-4
Профиль формата : Apple audio with iTunes info
Идентификатор кодека : M4A
Размер файла : 658 Кбайт
Продолжительность : 40 с.
Режим общего битрейта : Переменный
Общий поток : 133 Кбит/сек
Альбом : Весь Жванецкий
Трек : Короткие
Исполнитель : М.Жванецкий
Жанр : Speech
Дата записи : 1994
Дата кодирования : UTC 2013-01-22 21:44:25
Дата пометки : UTC 2013-01-22 21:44:27
Программа кодирования : iTunes 11.0.1.12
Encoding Params : (Binary)

Аудио
Идентификатор : 1
Формат : AAC
Формат/Информация : Advanced Audio Codec
Профиль формата : LC
Идентификатор кодека : 40
Продолжительность : 40 с.
Вид битрейта : Переменный
Битрейт : 128 Кбит/сек
Максимальный битрейт : 168 Кбит/сек
Каналы : 1 канал
Расположение каналов : Front: C
Частота : 44,1 КГц
Метод сжатия : С потерями
Размер потока : 646 Кбайт (98%)
Дата кодирования : UTC 2013-01-22 21:44:25
Дата пометки : UTC 2013-01-22 21:44:27

Общее
Полное имя : \Весь Жванецкий\_Короткие.m4a
Формат : MPEG-4
Профиль формата : Apple audio with iTunes info
Идентификатор кодека : M4A
Размер файла : 1,55 Мбайт
Продолжительность : 1 м. 38 с.
Режим общего битрейта : Переменный
Общий поток : 132 Кбит/сек
Альбом : Весь Жванецкий
Трек : Короткие
Исполнитель : М.Жванецкий
Жанр : Speech
Дата записи : 2007
Дата кодирования : UTC 2013-01-22 21:44:21
Дата пометки : UTC 2013-01-22 21:44:25
Программа кодирования : iTunes 11.0.1.12
Encoding Params : (Binary)

Аудио
Идентификатор : 1
Формат : AAC
Формат/Информация : Advanced Audio Codec
Профиль формата : LC
Идентификатор кодека : 40
Продолжительность : 1 м. 38 с.
Вид битрейта : Переменный
Битрейт : 128 Кбит/сек
Максимальный битрейт : 138 Кбит/сек
Каналы : 1 канал
Расположение каналов : Front: C
Частота : 44,1 КГц
Метод сжатия : С потерями
Размер потока : 1,52 Мбайт (98%)
Дата кодирования : UTC 2013-01-22 21:44:21
Дата пометки : UTC 2013-01-22 21:44:25

Общее
Полное имя : \Весь Жванецкий\_Миша Беленький.m4a
Формат : MPEG-4
Профиль формата : Apple audio with iTunes info
Идентификатор кодека : M4A
Размер файла : 1,04 Мбайт
Продолжительность : 1 м. 7 с.
Режим общего битрейта : Переменный
Общий поток : 129 Кбит/сек
Альбом : Весь Жванецкий
Трек : Миша Беленький
Исполнитель : М.Жванецкий
Жанр : Speech
Дата записи : 1994
Дата кодирования : UTC 2013-01-22 21:44:28
Дата пометки : UTC 2013-01-22 21:44:30
Программа кодирования : iTunes 11.0.1.12
Encoding Params : (Binary)

Аудио
Идентификатор : 1
Формат : AAC
Формат/Информация : Advanced Audio Codec
Профиль формата : LC
Идентификатор кодека : 40
Продолжительность : 1 м. 7 с.
Вид битрейта : Переменный
Битрейт : 128 Кбит/сек
Максимальный битрейт : 164 Кбит/сек
Каналы : 1 канал
Расположение каналов : Front: C
Частота : 44,1 КГц
Метод сжатия : С потерями
Размер потока : 1,02 Мбайт (98%)
Дата кодирования : UTC 2013-01-22 21:44:28
Дата пометки : UTC 2013-01-22 21:44:30

Общее
Полное имя : \Весь Жванецкий\_Паровоз для машиниста.m4a
Формат : MPEG-4
Профиль формата : Apple audio with iTunes info
Идентификатор кодека : M4A
Размер файла : 6,76 Мбайт
Продолжительность : 6 м. 53 с.
Режим общего битрейта : Переменный
Общий поток : 137 Кбит/сек
Альбом : Весь Жванецкий
Трек : Паровоз для машиниста
Исполнитель : М.Жванецкий
Жанр : Speech
Дата записи : 1994
Дата кодирования : UTC 2013-01-22 21:44:43
Дата пометки : UTC 2013-01-22 21:45:04
Программа кодирования : iTunes 11.0.1.12
Encoding Params : (Binary)

Аудио
Идентификатор : 1
Формат : AAC
Формат/Информация : Advanced Audio Codec
Профиль формата : LC
Идентификатор кодека : 40
Продолжительность : 6 м. 53 с.
Вид битрейта : Переменный
Битрейт : 136 Кбит/сек
Номинальный битрейт : 128 Кбит/сек
Максимальный битрейт : 228 Кбит/сек
Каналы : 1 канал
Расположение каналов : Front: C
Частота : 44,1 КГц
Метод сжатия : С потерями
Размер потока : 6,69 Мбайт (99%)
Дата кодирования : UTC 2013-01-22 21:44:43
Дата пометки : UTC 2013-01-22 21:45:04

Общее
Полное имя : \Весь Жванецкий\_Похороны в августе в Одессе.m4a
Формат : MPEG-4
Профиль формата : Apple audio with iTunes info
Идентификатор кодека : M4A
Размер файла : 5,08 Мбайт
Продолжительность : 5 м. 20 с.
Режим общего битрейта : Переменный
Общий поток : 133 Кбит/сек
Альбом : Весь Жванецкий
Трек : Похороны в августе в Одессе
Исполнитель : М.Жванецкий
Жанр : Speech
Дата записи : 1994
Дата кодирования : UTC 2013-01-22 21:45:04
Дата пометки : UTC 2013-01-22 21:45:17
Программа кодирования : iTunes 11.0.1.12
Encoding Params : (Binary)

Аудио
Идентификатор : 1
Формат : AAC
Формат/Информация : Advanced Audio Codec
Профиль формата : LC
Идентификатор кодека : 40
Продолжительность : 5 м. 20 с.
Вид битрейта : Переменный
Битрейт : 128 Кбит/сек
Максимальный битрейт : 141 Кбит/сек
Каналы : 1 канал
Расположение каналов : Front: C
Частота : 44,1 КГц
Метод сжатия : С потерями
Размер потока : 5,01 Мбайт (99%)
Дата кодирования : UTC 2013-01-22 21:45:04
Дата пометки : UTC 2013-01-22 21:45:17

Общее
Полное имя : \Весь Жванецкий\_Рассказ тети Клары.m4a
Формат : MPEG-4
Профиль формата : Apple audio with iTunes info
Идентификатор кодека : M4A
Размер файла : 1,43 Мбайт
Продолжительность : 1 м. 32 с.
Режим общего битрейта : Переменный
Общий поток : 130 Кбит/сек
Альбом : Весь Жванецкий
Трек : Рассказ тети Клары
Исполнитель : М.Жванецкий
Жанр : Speech
Дата записи : 1994
Дата кодирования : UTC 2013-01-22 21:45:18
Дата пометки : UTC 2013-01-22 21:45:22
Программа кодирования : iTunes 11.0.1.12
Encoding Params : (Binary)

Аудио
Идентификатор : 1
Формат : AAC
Формат/Информация : Advanced Audio Codec
Профиль формата : LC
Идентификатор кодека : 40
Продолжительность : 1 м. 32 с.
Вид битрейта : Переменный
Битрейт : 128 Кбит/сек
Максимальный битрейт : 209 Кбит/сек
Каналы : 1 канал
Расположение каналов : Front: C
Частота : 44,1 КГц
Метод сжатия : С потерями
Размер потока : 1,41 Мбайт (98%)
Дата кодирования : UTC 2013-01-22 21:45:18
Дата пометки : UTC 2013-01-22 21:45:22

Общее
Полное имя : \Весь Жванецкий\_Расстройство.m4a
Формат : MPEG-4
Профиль формата : Apple audio with iTunes info
Идентификатор кодека : M4A
Размер файла : 2,75 Мбайт
Продолжительность : 2 м. 55 с.
Режим общего битрейта : Переменный
Общий поток : 131 Кбит/сек
Альбом : Весь Жванецкий
Трек : Расстройство
Исполнитель : М.Жванецкий
Жанр : Speech
Дата записи : 1994
Дата кодирования : UTC 2013-01-22 21:45:22
Дата пометки : UTC 2013-01-22 21:45:35
Программа кодирования : iTunes 11.0.1.12
Encoding Params : (Binary)

Аудио
Идентификатор : 1
Формат : AAC
Формат/Информация : Advanced Audio Codec
Профиль формата : LC
Идентификатор кодека : 40
Продолжительность : 2 м. 55 с.
Вид битрейта : Переменный
Битрейт : 128 Кбит/сек
Максимальный битрейт : 166 Кбит/сек
Каналы : 1 канал
Расположение каналов : Front: C
Частота : 44,1 КГц
Метод сжатия : С потерями
Размер потока : 2,71 Мбайт (99%)
Дата кодирования : UTC 2013-01-22 21:45:22
Дата пометки : UTC 2013-01-22 21:45:35

Общее
Полное имя : \Весь Жванецкий\_Свобода.m4a
Формат : MPEG-4
Профиль формата : Apple audio with iTunes info
Идентификатор кодека : M4A
Размер файла : 1,54 Мбайт
Продолжительность : 1 м. 38 с.
Режим общего битрейта : Переменный
Общий поток : 131 Кбит/сек
Альбом : Весь Жванецкий
Трек : Свобода
Исполнитель : М.Жванецкий
Жанр : Speech
Дата записи : 1994
Дата кодирования : UTC 2013-01-22 21:45:35
Дата пометки : UTC 2013-01-22 21:45:42
Программа кодирования : iTunes 11.0.1.12
Encoding Params : (Binary)

Аудио
Идентификатор : 1
Формат : AAC
Формат/Информация : Advanced Audio Codec
Профиль формата : LC
Идентификатор кодека : 40
Продолжительность : 1 м. 38 с.
Вид битрейта : Переменный
Битрейт : 128 Кбит/сек
Максимальный битрейт : 172 Кбит/сек
Каналы : 1 канал
Расположение каналов : Front: C
Частота : 44,1 КГц
Метод сжатия : С потерями
Размер потока : 1,51 Мбайт (98%)
Дата кодирования : UTC 2013-01-22 21:45:35
Дата пометки : UTC 2013-01-22 21:45:42

Общее
Полное имя : \Весь Жванецкий\_Я за ним.m4a
Формат : MPEG-4
Профиль формата : Apple audio with iTunes info
Идентификатор кодека : M4A
Размер файла : 602 Кбайт
Продолжительность : 37 с.
Режим общего битрейта : Переменный
Общий поток : 132 Кбит/сек
Альбом : Весь Жванецкий
Трек : Я за ним
Исполнитель : М.Жванецкий
Жанр : Speech
Дата записи : 1994
Дата кодирования : UTC 2013-01-22 21:45:43
Дата пометки : UTC 2013-01-22 21:45:45
Программа кодирования : iTunes 11.0.1.12
Encoding Params : (Binary)

Аудио
Идентификатор : 1
Формат : AAC
Формат/Информация : Advanced Audio Codec
Профиль формата : LC
Идентификатор кодека : 40
Продолжительность : 37 с.
Вид битрейта : Переменный
Битрейт : 128 Кбит/сек
Максимальный битрейт : 138 Кбит/сек
Каналы : 1 канал
Расположение каналов : Front: C
Частота : 44,1 КГц
Метод сжатия : С потерями
Размер потока : 590 Кбайт (98%)
Дата кодирования : UTC 2013-01-22 21:45:43
Дата пометки : UTC 2013-01-22 21:45:45

Общее
Полное имя : \Весь Жванецкий\Короткие 1.m4a
Формат : MPEG-4
Профиль формата : Apple audio with iTunes info
Идентификатор кодека : M4A
Размер файла : 1,35 Мбайт
Продолжительность : 1 м. 24 с.
Режим общего битрейта : Переменный
Общий поток : 133 Кбит/сек
Альбом : Весь Жванецкий
Трек : Короткие
Исполнитель : М.Жванецкий
Жанр : Speech
Дата записи : 1994
Дата кодирования : UTC 2013-01-22 21:44:17
Дата пометки : UTC 2013-01-22 21:44:20
Программа кодирования : iTunes 11.0.1.12
Encoding Params : (Binary)

Аудио
Идентификатор : 1
Формат : AAC
Формат/Информация : Advanced Audio Codec
Профиль формата : LC
Идентификатор кодека : 40
Продолжительность : 1 м. 24 с.
Вид битрейта : Переменный
Битрейт : 128 Кбит/сек
Максимальный битрейт : 174 Кбит/сек
Каналы : 1 канал
Расположение каналов : Front: C
Частота : 44,1 КГц
Метод сжатия : С потерями
Размер потока : 1,33 Мбайт (99%)
Дата кодирования : UTC 2013-01-22 21:44:17
Дата пометки : UTC 2013-01-22 21:44:20

Общее
Полное имя : \Весь Жванецкий\Короткие.m4a
Формат : MPEG-4
Профиль формата : Apple audio with iTunes info
Идентификатор кодека : M4A
Размер файла : 1,12 Мбайт
Продолжительность : 1 м. 10 с.
Режим общего битрейта : Переменный
Общий поток : 132 Кбит/сек
Альбом : Весь Жванецкий
Трек : Короткие
Исполнитель : М.Жванецкий
Жанр : Speech
Дата записи : 1994
Дата кодирования : UTC 2013-01-22 21:44:14
Дата пометки : UTC 2013-01-22 21:44:16
Программа кодирования : iTunes 11.0.1.12
Encoding Params : (Binary)

Аудио
Идентификатор : 1
Формат : AAC
Формат/Информация : Advanced Audio Codec
Профиль формата : LC
Идентификатор кодека : 40
Продолжительность : 1 м. 10 с.
Вид битрейта : Переменный
Битрейт : 128 Кбит/сек
Максимальный битрейт : 142 Кбит/сек
Каналы : 1 канал
Расположение каналов : Front: C
Частота : 44,1 КГц
Метод сжатия : С потерями
Размер потока : 1,10 Мбайт (98%)
Дата кодирования : UTC 2013-01-22 21:44:14
Дата пометки : UTC 2013-01-22 21:44:16

Общее
Полное имя : \Весь Жванецкий\На даче.m4a
Формат : MPEG-4
Профиль формата : Apple audio with iTunes info
Идентификатор кодека : M4A
Размер файла : 4,75 Мбайт
Продолжительность : 5 м. 2 с.
Режим общего битрейта : Переменный
Общий поток : 132 Кбит/сек
Альбом : Весь Жванецкий
Трек : На даче
Исполнитель : М.Жванецкий
Жанр : Speech
Дата записи : 1994
Дата кодирования : UTC 2013-01-22 21:44:31
Дата пометки : UTC 2013-01-22 21:44:42
Программа кодирования : iTunes 11.0.1.12
Encoding Params : (Binary)

Аудио
Идентификатор : 1
Формат : AAC
Формат/Информация : Advanced Audio Codec
Профиль формата : LC
Идентификатор кодека : 40
Продолжительность : 5 м. 2 с.
Вид битрейта : Переменный
Битрейт : 128 Кбит/сек
Максимальный битрейт : 169 Кбит/сек
Каналы : 1 канал
Расположение каналов : Front: C
Частота : 44,1 КГц
Метод сжатия : С потерями
Размер потока : 4,69 Мбайт (99%)
Дата кодирования : UTC 2013-01-22 21:44:31
Дата пометки : UTC 2013-01-22 21:44:42
Время раздачи: 24/7
[NNM-Club.ru]_Ves' zhvanetskiy.torrent
 Торрент: Платиновая раздача  Зарегистрирован
 
Скачать


 Зарегистрирован:   22 Янв 2013 21:33:34
 Размер:   657 MB  (
 Рейтинг:   4,5 (Голосов: 44)
 Поблагодарили:   191
 Проверка:   Оформление проверено модератором 22 Янв 2013 21:34:38
Как cкачать  ·  Как раздать  ·  Правильно оформить  ·  Поднять ратио!  
Загрузка...
Показать сообщения:   
Начать новую тему   Ответить на тему    Торрент-трекер NNM-Club -> Аудио и Видео -> Аудиокниги (AAC) Часовой пояс: GMT + 3
Страница 1 из 1