Классический форум-трекер
canvas not supported
Нас вместе: 4 095 161

Звёздный крейсер Галактика: Кровь и Хром / Battlestar Galactica: Blood and Chrome (Сезон 1, веб-серии 01-10 (10)) (2012) WEBRip (BaibaKo)


Страницы:   Пред.  1, 2 
 
RSS
Начать новую тему   Ответить на тему    Торрент-трекер NNM-Club -> Зарубежные сериалы -> Звездный Крейсер Галактика / BattleStar Galactica
Автор Сообщение
Дмитрий Валерьевич ®
Uploader 100+
Стаж: 10 лет 2 мес.
Сообщений: 6829
Ratio: 14K
Раздал: 276 TB
Поблагодарили: 326868
100%
Откуда: Есть такой город – Глазов
russia.gif
Звёздный крейсер Галактика: Кровь и Хром /
Battlestar Galactica: Blood and Chrome
(Сезон 1, веб-серии 01-10 (10)) (2012) WEBRip (BaibaKo)

Русское название: Звёздный крейсер Галактика: Кровь и Хром
Оригинальное название: Battlestar Galactica: Blood and Chrome
Год выпуска: 2012
Страна: США
Жанр: Фантастика
Перевод: Профессиональный многоголосый закадровый - BaibaKo
Режиссёр: Джонас Пейт
Актёры: Люк Паскуалино, Бен Коттон, Джилл Тид, Лили Бордан, Майк Допуд, Джозеф Фалсетти, Эдриан Холмс, Карен ЛеБлан, Тоби Левинс, Брайан Маркинсон и др.

Описание:
События происходят на 10-м году первой войны с сайлонами. В то время как бушует сражение между людьми и их созданиями, разумной расой роботов, на всех 12 Колониальных мирах, самоуверенный молодой пилот вайпера вступает в драку. Энсин Уильям Адама, недавний выпускник Академии, которому чуть больше 20 лет, обнаруживает себя назначенным на один из самых мощных кораблей в Колониальном флоте… звёздный крейсер "Галактика". Талантливый, но импульсивный любитель рисковать скоро становится лидером опасной и секретной миссии, которая, в случае успеха, повернёт десятилетнюю войну в пользу отчаявшегося флота.


Продолжительность: 7-12 минут серия;
1. 00:38:52 (1 файл в раздаче (1-4 серии))
2. 00:18:15 (2 файл в раздаче (5-6 серии))
3. 00:32:27 (3 файл в раздаче (7-10 серии))

Качество видео: WEBRip
Формат: AVI
Видео: 720x400 (16:9), 23.976 fps, XviD ~1514 kbps, ~0.219 bit/pixel
Аудио Rus: 48 kHz, MPEG Layer 3, 2 ch, 192 kbps CBR
Аудио Eng: 48 kHz, MPEG Layer 3, 2 ch, 192 kbps CBR

Озвучка: Алексей Кузнецов, Руслан Иванов, Елена Григорьева и Татьяна Оболевич
Автор перевода: Татьяна Saavick

Сериал "Звёздный крейсер Галактика: Кровь и Хром / Battlestar Galactica: Blood and Chrome" на трекере NNM-Club
Общее
Формат : AVI
Формат/Информация : Audio Video Interleave
Размер файла : 532 Мбайт
Продолжительность : 38 м.
Общий поток : 1913 Кбит/сек
Программа кодирования : VirtualDubModRus 1.5.10.2 (build 2542/release)
Библиотека кодирования : VirtualDubMod build 2542/release

Видео
Идентификатор : 0
Формат : MPEG-4 Visual
Профиль формата : Advanced Simple@L5
Параметр BVOP формата : 2
Параметр QPel формата : Нет
Параметр GMC формата : Без точки перехода
Параметр матрицы формата : Default (H.263)
Идентификатор кодека : XVID
Идентификатор кодека/Подсказка : XviD
Продолжительность : 38 м.
Битрейт : 1514 Кбит/сек
Ширина : 720 пикселей
Высота : 400 пикселей
Соотношение сторон : 16:9
Частота кадров : 23,976 кадра/сек
Цветовое пространство : YUV
Субдискретизация насыщенности : 4:2:0
Битовая глубина : 8 бит
Тип развёртки : Прогрессивная
Метод сжатия : С потерями
Бит/(Пиксели*Кадры) : 0.219
Размер потока : 421 Мбайт (79%)
Библиотека кодирования : XviD 1.2.1 (UTC 2008-12-04)

Аудио #1
Идентификатор : 1
Формат : MPEG Audio
Версия формата : Version 1
Профиль формата : Layer 3
Режим : Joint stereo
Идентификатор кодека : 55
Идентификатор кодека/Подсказка : MP3
Продолжительность : 38 м.
Вид битрейта : Постоянный
Битрейт : 192 Кбит/сек
Каналы : 2 канала
Частота : 48,0 КГц
Метод сжатия : С потерями
Размер потока : 53,4 Мбайт (10%)
Выравнивание : Разделение по промежуткам
Продолжительность промежутка : 42 мс. (1,00 видеокадр)
Время предзагрузки промежутка : 500 мс.

Аудио #2
Идентификатор : 2
Формат : MPEG Audio
Версия формата : Version 1
Профиль формата : Layer 3
Режим : Joint stereo
Идентификатор кодека : 55
Идентификатор кодека/Подсказка : MP3
Продолжительность : 38 м.
Вид битрейта : Постоянный
Битрейт : 192 Кбит/сек
Каналы : 2 канала
Частота : 48,0 КГц
Метод сжатия : С потерями
Размер потока : 53,4 Мбайт (10%)
Выравнивание : Разделение по промежуткам
Продолжительность промежутка : 42 мс. (1,00 видеокадр)
Время предзагрузки промежутка : 500 мс.
Изначально канал SyFy заказал съёмки онлайн-сериала "Звёздный Крейсер Галактика: Кровь и Хром" (BattleStar Galactica: Blood & Chrome). Однако потом заявил, что проект выйдет как полуторачасовой фильм с возможным продолжением в виде веб-эпизодов. В итоге показ полнометражного пилота назначили на февраль 2013 г. А показ веб-версии начался с 9 ноября на онлайн-канале Machinima. Двухчасовой пилот разбит на 10 серий по 7-12 минут каждая. И все серии будут показаны в течение четырех недель.
Внимание! Раздача ведётся путём добавления новых серий; при каждом добавлении создаётся новый торрент.
Чтобы начать докачку новой серии, пользователям необходимо сделать следующее:
1. Остановить скачивание;
2. Удалить старый торрент у себя из клиента (старые серии удалять не надо);
3. Скачать новый торрент и запустить его у себя в клиенте вместо старого, при этом указать клиенту путь в старую папку куда и должно происходить скачивание новых серий. Ваш клиент при этом должен произвести хеширование (проверку) старой папки и будет докачивать только те серии, которых у вас ещё нет. Старые серии при этом не удаляются, а продолжают раздаваться! Eсли вы уже удалили старые серии, то предотвратить повторную закачку старых серий можно, отжав галочку в соответствующих местах при запуске нового торрента.
Время раздачи: 24/7
[NNM-Club.ru]_Battlestar Galactica. Blood and Chrome. Season 1. BaibaKo.torrent
 Торрент: Платиновая раздача  Зарегистрирован
 
Скачать


 Зарегистрирован:   10 Дек 2012 14:38:52
 Размер:   1,19 GB  (
 Рейтинг:   4,8 (Голосов: 86)
 Поблагодарили:   290
 Проверка:   Оформление проверено модератором 10 Дек 2012 14:55:22
Как cкачать  ·  Как раздать  ·  Правильно оформить  ·  Поднять ратио!  
Radem
Стаж: 9 лет 7 мес.
Сообщений: 6
Ratio: 27,497
100%
Dimon1808 писал(а): Перейти к сообщению
Не стал никак обрабатывать 5 и 6 серии. Выложил в том же виде, как сделали Байбаки.

Даже не знаю... Преимущество этой раздачи именно в том, что серии здесь собраны в одно целое. Остальные раздачи - одиночные (спарки серий).
Etone
Стаж: 8 лет 11 мес.
Сообщений: 5
Ratio: 2,9
100%
russia.gif
спасибо. затянул...жалко,что и серии короткие и серий мало.
Дмитрий Валерьевич ®
Uploader 100+
Стаж: 10 лет 2 мес.
Сообщений: 6829
Ratio: 14K
Раздал: 276 TB
Поблагодарили: 326868
100%
Откуда: Есть такой город – Глазов
russia.gif
Ну, ребят, если не буду выкладывать сразу, опять же начнётся "а где?", "а когда?" или будут говорить, что затянул (см. пост выше). К тому же я в начале спрашивал как лучше выкладывать серии, все промолчали, либо сказали делай как знаешь.
Дмитрий Валерьевич ®
Uploader 100+
Стаж: 10 лет 2 мес.
Сообщений: 6829
Ratio: 14K
Раздал: 276 TB
Поблагодарили: 326868
100%
Откуда: Есть такой город – Глазов
russia.gif
Серии с седьмой по десятую будут добавлены "склейкой" после выхода в озвучке серий 9 и 10.
Bogol
Стаж: 8 лет 3 мес.
Сообщений: 1
Ratio: 15,183
100%
russia.gif
а когда случится то??? 9-10серия
Дмитрий Валерьевич ®
Uploader 100+
Стаж: 10 лет 2 мес.
Сообщений: 6829
Ratio: 14K
Раздал: 276 TB
Поблагодарили: 326868
100%
Откуда: Есть такой город – Глазов
russia.gif
Добавлены серии 7, 8, 9 и 10. Перекачайте торрент!
naumV
Предупреждений: 1
Предупреждений: 1 
Стаж: 13 лет 5 мес.
Сообщений: 1207
Ratio: 5,221
Раздал: 14,09 TB
Поблагодарили: 18
100%
Откуда: Днепропетровск
ukraine.gif
Что подобного ещё посмотреть? ато мало...

_________________
Находя богатство - теряете совесть, Находя женщину - теряете рассудок,Находя истину - теряете веру,И только потеряв все - находите свободу!!!
pirogoffdo
Стаж: 8 лет 6 мес.
Сообщений: 9
Ratio: 4,975
0%
Откуда: Ростов-на-Дону
что-то я не вижу не только 5-6 серий но и даже 4
tomat80
Стаж: 9 лет 11 мес.
Сообщений: 379
Ratio: 21,114
Раздал: 10,33 TB
Поблагодарили: 1890
100%
russia.gif
pirogoffdo писал(а): Перейти к сообщению
что-то я не вижу не только 5-6 серий но и даже 4

Это короткометражки склеенные в три блока. Читай описание внимательнее:
Продолжительность: 7-12 минут серия;
1. 00:38:52 (1 файл в раздаче (1-4 серии))
2. 00:18:15 (2 файл в раздаче (5-6 серии))
3. 00:32:27 (3 файл в раздаче (7-10 серии))

_________________
Науки делятся на естественные, неестесственные и противоестесственные.
Показать сообщения:   
Начать новую тему   Ответить на тему    Торрент-трекер NNM-Club -> Зарубежные сериалы -> Звездный Крейсер Галактика / BattleStar Galactica Часовой пояс: GMT + 3
Страницы:   Пред.  1, 2
Страница 2 из 2