Классический форум-трекер
canvas not supported
Нас вместе: 4 076 811

Упражнения по восстановлению зрения по системе Норбекова (2005) VHSRip


 
 
RSS
Начать новую тему   Ответить на тему    Торрент-трекер NNM-Club -> Видео -> Обучающее Видео для родителей
Автор Сообщение
SirSatana ®
Стаж: 7 лет 7 мес.
Сообщений: 1362
Ratio: 26,412
Поблагодарили: 8392
100%
ukraine.gif
Упражнения по восстановлению зрения по системе Норбекова (2005) VHSRip
Русское название: Упражнения по восстановлению зрения по системе Норбекова
Год выпуска: 2005
Производство: Россия
Жанр: Для родителей, Видеоруководство, Учебно-оздоровительный

Перевод: Оригинал
Ведущая: А.И. Сташкевич

Описание фильма:
Специально разработан для детей, а также их родителей.
Состоит из 7 упражнений. Общая продолжительность 20-30 минут. Упражнения рекомендуется выполнять один раз в день.
Упражнения ведет Сташкевич А.И.

Продолжительность: 00.29.57
Качество видео: VHSRip

Видеокодек: DivX 5
Битрейт видео: ~1502 Кб/с
Размер кадра: 640x480
Аудиокодек: MP3, 2сh
Битрейт аудио: 119 Кб/с

General
Complete name : F:\Детский Видеокурс по восстановлению зрения.avi
Format : AVI
Format/Info : Audio Video Interleave
File size : 350 MiB
Duration : 29mn 57s
Overall bit rate : 1 634 Kbps
Writing application : VirtualDubMod 1.5.4.1 (build 2178/release)
Writing library : VirtualDubMod build 2178/release

Video
ID : 0
Format : MPEG-4 Visual
Format settings, BVOP : 1
Format settings, QPel : No
Format settings, GMC : No warppoints
Format settings, Matrix : Default (H.263)
Muxing mode : Packed bitstream
Codec ID : DX50
Codec ID/Hint : DivX 5
Duration : 29mn 57s
Bit rate : 1 502 Kbps
Width : 640 pixels
Height : 480 pixels
Display aspect ratio : 4:3
Frame rate : 25.000 fps
Color space : YUV
Chroma subsampling : 4:2:0
Bit depth : 8 bits
Scan type : Progressive
Compression mode : Lossy
Bits/(Pixel*Frame) : 0.196
Stream size : 322 MiB (92%)
Writing library : DivX 6.8.3-6.8.4 (UTC 2008-06-07)

Audio
ID : 1
Format : MPEG Audio
Format version : Version 1
Format profile : Layer 3
Mode : Joint stereo
Mode extension : MS Stereo
Codec ID : 55
Codec ID/Hint : MP3
Duration : 29mn 57s
Bit rate mode : Variable
Bit rate : 119 Kbps
Nominal bit rate : 128 Kbps
Channel(s) : 2 channels
Sampling rate : 48.0 KHz
Compression mode : Lossy
Delay relative to video : 24ms
Stream size : 25.5 MiB (7%)
Alignment : Split accross interleaves
Interleave, duration : 24 ms (0.60 video frame)
Interleave, preload duration : 474 ms
Writing library : LAME3.98r
Encoding settings : -m j -V 4 -q 2 -lowpass 17 --abr 128
Скриншоты:


Время раздачи: 24/7 - до 5 скачавших, потом по ситуации
[NNM-Club.ru]_Detskiy Videokurs po vosstanovleniyu zreniya.avi.torrent
 Торрент: Платиновая раздача  Зарегистрирован
 
Скачать


Примагнититься
 Зарегистрирован:   29 Фев 2012 16:28:40
 Размер:   350 MB  (
 Рейтинг:   4,6 (Голосов: 41)
 Поблагодарили:   194
 Проверка:   Оформление проверено модератором 29 Фев 2012 17:30:39
Как cкачать  ·  Как раздать  ·  Правильно оформить  ·  Поднять ратио!  
Деловар
Стаж: 9 лет 9 мес.
Сообщений: 67
Ratio: 5,836
100%
russia.gif
Кто пробывал и кому помогло отпишитесь, пожалуйста.
SirSatana ®
Стаж: 7 лет 7 мес.
Сообщений: 1362
Ratio: 26,412
Поблагодарили: 8392
100%
ukraine.gif
Деловар писал(а): Перейти к сообщению
Кто пробывал и кому помогло отпишитесь, пожалуйста.

Сам не пользовался, но есть люди (Знакомые родителей) которые с детьми по этому уроку работали, одни говорят отлично, одни так себе. Решать вам :умничает:
xtwiker
Стаж: 8 лет 6 мес.
Сообщений: 357
Ratio: 13,176
Поблагодарили: 2180
witch.png
Нет никаких системы Норбекова,теории Жданова.Есть доктор Уильям Горацио Бейтс и его теория аккомодации и практика восстановления зрения.И несколько хитрых мужичков,подзаработавших на коммерциализации идей офтальмолога.Странствующие дервиши,блин.Маргарет Дарст Корбетт знаю.Теоретика Норбекова-нет.
SirSatana ®
Стаж: 7 лет 7 мес.
Сообщений: 1362
Ratio: 26,412
Поблагодарили: 8392
100%
ukraine.gif
xtwiker писал(а): Перейти к сообщению
Нет никаких системы Норбекова,теории Жданова.Есть доктор Уильям Горацио Бейтс и его теория аккомодации и практика восстановления зрения.И несколько хитрых мужичков,подзаработавших на коммерциализации идей офтальмолога.Странствующие дервиши,блин.Маргарет Дарст Корбетт знаю.Теоретика Норбекова-нет.

Если честно я о нем недавно только услышал и то из за какой то мелочи ...
xtwiker
Стаж: 8 лет 6 мес.
Сообщений: 357
Ratio: 13,176
Поблагодарили: 2180
witch.png
SirSatana
Не смотря ни на что,всё,что подвигает людей на хорошие дела,полезно.Кто-то заинтересуется и начнёт копать глубже.Я сам интересовался вопросом зрения и понял,что не всё так просто.Надо менять мировоззрение,психику.Ну типа как змея Кундалини пробуждать,Йогом становиться.Мне это оказалось не под силу. :пока:
SirSatana ®
Стаж: 7 лет 7 мес.
Сообщений: 1362
Ratio: 26,412
Поблагодарили: 8392
100%
ukraine.gif
xtwiker писал(а): Перейти к сообщению
SirSatana
Не смотря ни на что,всё,что подвигает людей на хорошие дела,полезно.Кто-то заинтересуется и начнёт копать глубже.Я сам интересовался вопросом зрения и понял,что не всё так просто.Надо менять мировоззрение,психику.Ну типа как змея Кундалини пробуждать,Йогом становиться.Мне это оказалось не под силу. :пока:

Аналогичная ситуация, пытался заниматься його но не осилил=)
Krukov_Aleksey
Стаж: 7 лет 4 мес.
Сообщений: 51
Ratio: 217,43
55.79%
Спасибо
svirel
Стаж: 9 лет 1 мес.
Сообщений: 7
Ratio: 0,306
100%
russia.gif
Интересно, помогает? Попробуем, спасибо,
Показать сообщения:   
Начать новую тему   Ответить на тему    Торрент-трекер NNM-Club -> Видео -> Обучающее Видео для родителей Часовой пояс: GMT + 3
Страница 1 из 1