Классический форум-трекер
canvas not supported
Нас вместе: 4 077 971

Протоиерей Олег Стеняев | Почему именно православие. [2008] Screener


 
 
RSS
Начать новую тему   Ответить на тему    Торрент-трекер NNM-Club -> Религии и культы -> Религиозное видео
Автор Сообщение
Артем Ивочкин ®
Стаж: 8 лет 10 мес.
Сообщений: 863
Ratio: 37,025
Поблагодарили: 5384
100%
russia.gif
Протоиерей Олег Стеняев | Почему именно православие. [2008] Screener
Автор: протоиерей Олег Стеняев
Телекомпания: Студия "Обитель" Свято-Троицкой Сергиевой Лавры
Название: Почему именно православие
Год выпуска: 2008
Жанр: Лекция
Качество видео: Screener
Продолжительность: 01:11:46
Видеокодек: H264-MPEG-4 AVC (part 10) (avc1)
Битрейт видео: ~270 kbps, 25 fps
Размер кадра: 450 x 360 (5:4)
Аудиокодек: AC3 2.0
Битрейт аудио: 128 kb/s, 2 Ch, 44.1 kHz

Описание:
Для православных.
Многим известна великолепная /distrusting/2.htm]статья А.И.Осипова "Почему православие есть истинная вера". Но Алексей Ильич - мирянин, и многое просто не в праве себе позволить. Да и пастырского опыта уважаемый профессор не имеет. Другое дело рукоположенный священник. Отец Олег - великолепный знаток Библии и всего корпуса святоотеческой литературы, экзегет и пастырь от Бога. Кому нравится Осипов, Сысоев, Кураев и Смирнов - смело качайте.
Для инославных и иноверных.
Протоиерей Олег Стеняев известен уважительным отношением к неправославным, особенно к людям Книги, любящим и знающим Слово. Диспуты, проводимые им с мусульманами, баптистами, харизматами и представителями других конфессий, неизменно носили спокойный и дружеский с обеих сторон характер.
Для атеистов.
Отец Олег не является сотрудником миссионерского отдела официальной церкви - все делает на свой страх и риск. Бывший токарь 4-го разряда, теперь знающий иврит и арабский, в 2000 году году он был направлен в Чечню, где проводил беседы с солдатами и мирными жителями, и совершил несколько крещений, в том числе среди мусульман. Его не убили только благодаря исключительно хорошему знанию Писания. Релизер пришел от атеизма и оккультизма в православие лично через этого священника.
Полное имя : Почему именно православие.mp4
Формат : MPEG-4
Профиль формата : Base Media
Идентификатор кодека : isom
Размер файла : 206 Мбайт
Продолжительность : 1 ч. 11 м.
Общий поток : 401 Кбит/сек
Программа кодирования : XviD4PSP 6.0 / 53.6.0

Видео
Идентификатор : 1
Формат : AVC
Формат/Информация : Advanced Video Codec
Профиль формата : Baseline@L2.1
Параметр CABAC формата : Нет
Параметр ReFrames формата : 1 кадр
Идентификатор кодека : avc1
Идентификатор кодека/Информация : Advanced Video Coding
Продолжительность : 1 ч. 11 м.
Вид битрейта : Переменный
Битрейт : 270 Кбит/сек
Ширина : 450 пикс.
Высота : 360 пикс.
Соотношение сторон : 5:4
Режим частоты кадров : Постоянный
Частота кадров : 25,000 кадр/сек
Цветовое пространство : YUV
Подвыборка цветности : 4:2:0
Битовая глубина : 8 бит
Тип развёртки : Прогрессивная
Бит/(Пиксели*Кадры) : 0.067
Размер потока : 139 Мбайт (67%)

Аудио
Идентификатор : 2
Формат : AC-3
Формат/Информация : Audio Coding 3
Идентификатор кодека : ac-3
Продолжительность : 1 ч. 11 м.
Вид битрейта : Постоянный
Битрейт : 128 Кбит/сек
Частота : 44,1 КГц
Битовая глубина : 16 бит
Метод сжатия : С потерями
Размер потока : 65,7 Мбайт (32%)
Скриншоты:
Релизеру случалось выкладывать материалы религиозного характера на разных ресурсах. Ни на одном из них подобные публикации не вызывали столько площадной брани, как на nnm-club. Вот последний пример:
  1. Опубликовав на nnm-club «Технологию атаки на Церковь» и «Как относиться к нападкам на Церковь», пришлось просить модераторов закрыть темы - настолько неприятно было читать беспардонные оффтопики слетевшихся антиклерикалов и христианофобов.
  2. На следующий день релизы были повторены на самом крупном российском трекере. Так вот: за прошедшее время там ни в одной теме не появилось ни одного оскорбления христиан, их веры и Церкви (если они теперь появятся, будет интересно сравнить их дату с датой этого релиза). И это достойный пример для подражания, который дает действительно всенародный ресурс. Особенно если сравнить посещаемость.
Пожалуйста, помните, что администрация nnm-club позиционирует свое детище как интеллигентный торрент-трекер. Не мешайте общаться верующим. ПМСМ интеллигенция, призванная быть аристократией духа, должна являть пример порядочности для своего народа. Даже несмотря на то, что наша интеллигенция имеет ряд особенностей.
Ну и наконец, правила форума никто не отменял.
Время раздачи: по будням 20:00 - 23:00 в выходные 11:00 - 23:00
[NNM-Club.ru]_Pochemu imenno pravoslavie.mp4.torrent
 Торрент:   Зарегистрирован
 
Зарегистрируйтесь и скачайте торрент!
16,3 KB

Примагнититься
 Зарегистрирован:   16 Фев 2013 11:46:11
 Размер:   206 MB  (
 Рейтинг:   3,2 (Голосов: 37)
 Поблагодарили:   81
 Проверка:   Оформление проверено модератором 16 Фев 2013 13:17:46
Как cкачать  ·  Как раздать  ·  Правильно оформить  ·  Поднять ратио!  
Показать сообщения:   
Начать новую тему   Ответить на тему    Торрент-трекер NNM-Club -> Религии и культы -> Религиозное видео Часовой пояс: GMT + 3
Страница 1 из 1