Классический форум-трекер
canvas not supported
Нас вместе: 4 078 961

Семья напрокат / Borrowed Hearts (1997)[H.264] DVDRip


 
 
RSS
Начать новую тему   Ответить на тему    Торрент-трекер NNM-Club -> Видео -> Зарубежные Фильмы для детей
Автор Сообщение
W.K. ®
Стаж: 8 лет 6 мес.
Сообщений: 637
Ratio: 279,684
Поблагодарили: 23072
100%
ussr.gif
Семья напрокат / Borrowed Hearts (1997) DVDRip
Русское название: Семья напрокат
Оригинальное название: Borrowed Hearts
Год выпуска: 1997
Жанр: Рождественская мелодрама, Семейный, Фэнтези

Описание фильма:
Кэтлин и ее семилетняя дочь Зои мечтают о собственном доме. И в канун Рождества они случайно знакомятся с Сэмом, богатым и симпатичным парнем, у которого «горит» сделка с мексиканским бизнесменом Ксавьером Дель Кампо, потому, что тот не любит холостяков. А Сэм, ка назло, — холостяк. И он предлагает Кэтлин и Зои изобразить за хорошую плату его семью. Все бы прошло «как по маслу», но Зои решила, что Ксавьер — ее ангел-хранитель, который вернет ей отца. Ангел ли Ксавьер на самом деле или нет, но Сэм и Кэтлин полюбили друг друга…

Режиссер: Тед Котчефф / Ted Kotcheff
Актеры: Рома Дауни / Roma Downey, Эрик МакКормак / Eric McCormack, Шоун Томпсон / Shawn Thompson, Джанет Бэйли, Кевин Хикс, Гектор Элизондо / Hector Elizondo

Продолжительность: 01:28:32

Перевод: Многоголосый, закадровый
Дата мировой премьеры: 30 ноября 1997

Формат: mkv
Видеокодек: MPEG-4 AVC/H.264
Битрейт видео: ~2000 Кбит/сек
Размер кадра: 720 х544
Качество видео: DVDRip
Аудиокодек: AC3 2.0
Битрейт аудио: 192 Кбит/сек
Общее
Уникальный идентификатор : 294927730114778806930827134202414412504 (0xDDE103C27330C2B6D28F10A8DB84B2D8)
Полное имя : D:\Downloads\Borrowed Hearts.mkv
Формат : Matroska
Размер файла : 1,36 Гбайт
Продолжительность : 1 ч. 28 м.
Общий поток : 2195 Кбит/сек
Программа кодирования : Lavf52.94.0
Библиотека кодирования : Lavf52.94.0

Видео
Идентификатор : 1
Формат : AVC
Формат/Информация : Advanced Video Codec
Профиль формата : Main@L3.1
Параметр CABAC формата : Да
Параметр ReFrames формата : 2 кадра
Идентификатор кодека : V_MPEG4/ISO/AVC
Продолжительность : 1 ч. 28 м.
Битрейт : 2000 Кбит/сек
Ширина : 720 пикс.
Высота : 544 пикс.
Соотношение сторон : 4:3
Режим частоты кадров : Переменный
Частота кадров : 29,970 кадр/сек
Цветовое пространство : YUV
Подвыборка цветности : 4:2:0
Битовая глубина : 8 бит
Тип развёртки : Прогрессивная
Бит/(Пиксели*Кадры) : 0.170
Размер потока : 1,21 Гбайт (89%)
Библиотека кодирования : x264 core 112 r1834 a51816a
Настройки программы : cabac=1 / ref=1 / deblock=1:0:0 / analyse=0x1:0 / me=dia / subme=2 / psy=1 / psy_rd=0.00:0.00 / mixed_ref=0 / me_range=16 / chroma_me=1 / trellis=0 / 8x8dct=0 / cqm=0 / deadzone=21,11 / fast_pskip=1 / chroma_qp_offset=0 / threads=2 / sliced_threads=0 / nr=0 / decimate=1 / interlaced=0 / constrained_intra=0 / bframes=3 / b_pyramid=0 / b_adapt=1 / b_bias=0 / direct=3 / weightb=0 / open_gop=0 / weightp=2 / keyint=250 / keyint_min=25 / scenecut=40 / intra_refresh=0 / rc_lookahead=40 / rc=abr / mbtree=1 / bitrate=2000 / ratetol=1.0 / qcomp=0.60 / qpmin=10 / qpmax=51 / qpstep=4 / ip_ratio=1.41 / aq=1:1.00

Аудио
Идентификатор : 2
Формат : AC-3
Формат/Информация : Audio Coding 3
Расширение режима : CM (complete main)
Идентификатор кодека : A_AC3
Продолжительность : 1 ч. 28 м.
Вид битрейта : Постоянный
Битрейт : 192 Кбит/сек
Каналы : 2 канала
Расположение каналов : Front: L R
Частота : 48,0 КГц
Битовая глубина : 16 бит
Метод сжатия : С потерями
Размер потока : 122 Мбайт (9%)
Скриншоты:




Время раздачи: с 23:00 до 07:00, днем по мере возможности
Приятного просмотра! :пока:
Семья напрокат / Borrowed Hearts (1997) DVD5
[NNM-Club.ru]_Borrowed Hearts.mkv.torrent
 Торрент: Платиновая раздача  Зарегистрирован
 
Скачать


Примагнититься
 Зарегистрирован:   21 Дек 2011 10:22:03
 Размер:   1,36 GB  (
 Рейтинг:   4,9 (Голосов: 66)
 Поблагодарили:   271
 Проверка:   Оформление проверено модератором 21 Дек 2011 16:21:09
Как cкачать  ·  Как раздать  ·  Правильно оформить  ·  Поднять ратио!  

_________________
Загрузка...
olenenokk
Стаж: 7 лет 8 мес.
Сообщений: 18
Ratio: 290,537
100%
russia.gif
Спасибо! Давно искала! Обожаю этот фильм :НГ_прыжок:
Disambeltar
Стаж: 9 лет 9 мес.
Сообщений: 11
Ratio: 0,895
100%
belarus.gif
Добрый, светлый, приятный фильм! Хороший актерский состав и не зря потраченное время)) :клево:
Yuzich
Стаж: 8 лет
Сообщений: 102
Ratio: 6,7
100%
Этот фильм в нашей семье уже такой же символ НГ как мандарины))))
Показать сообщения:   
Начать новую тему   Ответить на тему    Торрент-трекер NNM-Club -> Видео -> Зарубежные Фильмы для детей Часовой пояс: GMT + 3
Страница 1 из 1