Классический форум-трекер
canvas not supported
Нас вместе: 4 079 287

VA - HardBass: Reclamation (2013) [FLAC|Lossless]<Hardstyle, Hardbass>


 
 
RSS
Начать новую тему   Ответить на тему    Торрент-трекер NNM-Club -> Electronic -> Hardstyle, Jumpstyle, Hardcore (Lossless)
Автор Сообщение
KoenCCXR ®
Стаж: 9 лет 6 мес.
Сообщений: 208
Ratio: 371,99
Раздал: 33,19 TB
Поблагодарили: 1785
100%
Откуда: Из радиоактивной степи!
russia.gif
VA - HardBass: Reclamation (2013)
Год: 2013
Жанр: Hardstyle, Hardbass
Продолжительность: 04:41:53
Издатель (лейбл): BeYourself Music/B2S
Номер по каталогу: BYMCD034
Источник (релизер): SPL

Кодек: FLAC
Битрейт: Lossless
Тип рипа: tracks

Трек лист:
Продолжительность: 01:09:10

01. Noisecontrollers - So High (2:13)
02. Brennan Heart - One Blade (0:51)
03. Wildstylez - Soundstorm (5:01)
04. D-Block & S-Te-Fan - Rebel (4:06)
05. Noisecontrollers - Sludge (3:16)
06. Noisecontrollers - Feel So Good (4:32)
07. Noisecontrollers - Experience The Beyond (5:01)
08. D-Block & S-Te-Fan - Twisted Mind Fantasy (2:36)
09. Noisecontrollers - Why So Serious? (3:16)
10. Noisecontrollers - Break The Show (4:28)
11. Zatox & Villain - Action (4:32)
12. Ran-D & Redixx - No Cure (5:01)
13. Outlander - Our World (4:03)
14. Frontliner - All In This Together (3:28)
15. DJ Duro - Cocaine MF (Alpha2 Remix) (4:06)
16. Gunz For Hire - Bolivia (4:42)
17. Adaro & Digital Punk - Natural Born Killers (3:42)
18. Code Black - R.E.V.O.L.U.T.I.O.N. (Official Hard Bass Blue Theme) (4:16)
Код:

Exact Audio Copy V1.0 beta 3 from 29. August 2011
EAC extraction logfile from February 2013
Blue Team - Mixed By Noisecontrollers / Hard Bass 2013 CD-1
Used drive  : XXX  Adapter: 1  ID: 1
Read mode               : Secure
Utilize accurate stream : Yes
Defeat audio cache      : Yes
Make use of C2 pointers : No
Read offset correction                      : 0
Overread into Lead-In and Lead-Out          : No
Fill up missing offset samples with silence : Yes
Delete leading and trailing silent blocks   : No
Null samples used in CRC calculations       : Yes
Used interface                              : Native Win32 interface for Win NT & 2000
Gap handling                                : Not detected, thus appended to previous track
Used output format : Internal WAV Routines
Sample format      : 44.100 Hz; 16 Bit; Stereo
TOC of the extracted CD
     Track |   Start  |  Length  | Start sector | End sector
    ---------------------------------------------------------
        1  |  0:00.00 |  2:13.04 |         0    |     9978
        2  |  2:13.04 |  0:51.15 |      9979    |    13818
        3  |  3:04.19 |  5:00.60 |     13819    |    36378
        4  |  8:05.04 |  4:05.73 |     36379    |    54826
        5  | 12:11.02 |  3:15.47 |     54827    |    69498
        6  | 15:26.49 |  4:31.74 |     69499    |    89897
        7  | 19:58.48 |  5:00.62 |     89898    |   112459
        8  | 24:59.35 |  2:36.29 |    112460    |   124188
        9  | 27:35.64 |  3:15.46 |    124189    |   138859
       10  | 30:51.35 |  4:28.11 |    138860    |   158970
       11  | 35:19.46 |  4:32.01 |    158971    |   179371
       12  | 39:51.47 |  5:01.32 |    179372    |   201978
       13  | 44:53.04 |  4:03.14 |    201979    |   220217
       14  | 48:56.18 |  3:28.01 |    220218    |   235818
       15  | 52:24.19 |  4:06.00 |    235819    |   254268
       16  | 56:30.19 |  4:41.44 |    254269    |   275387
       17  | 61:11.63 |  3:42.30 |    275388    |   292067
       18  | 64:54.18 |  4:16.03 |    292068    |   311270
Track  1
     Filename C:\va - hard bass\cd1\01 So High.wav
     Peak level 100.0 %
     Extraction speed 1.9 X
     Track quality 100.0 %
     Copy CRC 91DB7624
     Copy OK
Track  2
     Filename C:\va - hard bass\cd1\02 One Blade.wav
     Peak level 100.0 %
     Extraction speed 1.4 X
     Track quality 100.0 %
     Copy CRC FB1CED76
     Copy OK
Track  3
     Filename C:\va - hard bass\cd1\03 Soundstorm.wav
     Peak level 100.0 %
     Extraction speed 1.6 X
     Track quality 99.9 %
     Copy CRC C97C7F46
     Copy OK
Track  4
     Filename C:\va - hard bass\cd1\04 Rebel.wav
     Peak level 100.0 %
     Extraction speed 2.1 X
     Track quality 100.0 %
     Copy CRC CBB97EE0
     Copy OK
Track  5
     Filename C:\va - hard bass\cd1\05 Sludge.wav
     Peak level 100.0 %
     Extraction speed 2.1 X
     Track quality 100.0 %
     Copy CRC 05333066
     Copy OK
Track  6
     Filename C:\va - hard bass\cd1\06 Feel So Good.wav
     Peak level 100.0 %
     Extraction speed 2.2 X
     Track quality 100.0 %
     Copy CRC B2B72599
     Copy OK
Track  7
     Filename C:\va - hard bass\cd1\07 Experience The Beyond.wav
     Peak level 100.0 %
     Extraction speed 2.2 X
     Track quality 100.0 %
     Copy CRC E7CB405E
     Copy OK
Track  8
     Filename C:\va - hard bass\cd1\08 Twisted Mind Fantasy.wav
     Peak level 100.0 %
     Extraction speed 1.2 X
     Track quality 99.9 %
     Copy CRC BD187FE2
     Copy OK
Track  9
     Filename C:\va - hard bass\cd1\09 Why So Serious.wav
     Peak level 100.0 %
     Extraction speed 2.0 X
     Track quality 100.0 %
     Copy CRC 0BEA6E8F
     Copy OK
Track 10
     Filename C:\va - hard bass\cd1\10 Break The Show.wav
     Peak level 100.0 %
     Extraction speed 2.1 X
     Track quality 100.0 %
     Copy CRC 91508D47
     Copy OK
Track 11
     Filename C:\va - hard bass\cd1\11 Action.wav
     Peak level 100.0 %
     Extraction speed 2.2 X
     Track quality 100.0 %
     Copy CRC 5B012AC8
     Copy OK
Track 12
     Filename C:\va - hard bass\cd1\12 No Cure.wav
     Peak level 100.0 %
     Extraction speed 1.6 X
     Track quality 99.9 %
     Copy CRC A26FDB58
     Copy OK
Track 13
     Filename C:\va - hard bass\cd1\13 Our World.wav
     Peak level 100.0 %
     Extraction speed 2.1 X
     Track quality 100.0 %
     Copy CRC E0D66577
     Copy OK
Track 14
     Filename C:\va - hard bass\cd1\14 All In This Together.wav
     Peak level 100.0 %
     Extraction speed 2.1 X
     Track quality 100.0 %
     Copy CRC 894FD772
     Copy OK
Track 15
     Filename C:\va - hard bass\cd1\15 Cocaine MF (Alpha2 Remix).wav
     Peak level 100.0 %
     Extraction speed 1.5 X
     Track quality 99.9 %
     Copy CRC 0B8E37C2
     Copy OK
Track 16
     Filename C:\va - hard bass\cd1\16 Bolivia.wav
     Peak level 100.0 %
     Extraction speed 2.2 X
     Track quality 100.0 %
     Copy CRC 255E8963
     Copy OK
Track 17
     Filename C:\va - hard bass\cd1\17 Natural Born Killers.wav
     Peak level 100.0 %
     Extraction speed 2.1 X
     Track quality 100.0 %
     Copy CRC 7EF2D716
     Copy OK
Track 18
     Filename C:\va - hard bass\cd1\18 R.E.V.O.L.U.T.I.O.N..wav
     Peak level 100.0 %
     Extraction speed 2.1 X
     Track quality 100.0 %
     Copy CRC 43E927A8
     Copy OK
No errors occurred
End of status report
Код:

-----------------------

DON'T MODIFY THIS FILE

-----------------------

PERFORMER: auCDtect Task Manager, ver. 1.5.1RC4 build 1.5.1.5
Copyright (c) 2008-2010 y-soft. All rights reserved
http://y-soft.org

ANALYZER: auCDtect: CD records authenticity detector, version 0.8.2
Copyright (c) 2004 Oleg Berngardt. All rights reserved.
Copyright (c) 2004 Alexander Djourik. All rights reserved.

FILE: 103-wildstylez-soundstorm.flac
  Size: 40851965 Hash: 44FE253FA1B180B19474FA0A6A2291D0 Accuracy: -m0
  Conclusion: CDDA 100%
  Signature: 4B8F740972EA518E40E9556B560F061683B62815
FILE: 102-brennan_heart-one_blade.flac
  Size: 7500375 Hash: 673D13E80646FBE454A24C8D90B7E8EA Accuracy: -m0
  Conclusion: CDDA 86%
  Signature: D7C8FC84281234930C28952093498B3A155D472B
FILE: 101-noisecontrollers-so_high.flac
  Size: 18230371 Hash: 8D3AD565FB44FA5FDB242B9E64035D15 Accuracy: -m0
  Conclusion: CDDA 100%
  Signature: B14A16CD5755C6B91F413F8311DA0604AF64EAE7
FILE: 118-code_black-revolution_(official_hard_bass_blue_theme).flac
  Size: 33188837 Hash: 4471FA68CAEE24E36F6FD94C1A2734B0 Accuracy: -m0
  Conclusion: CDDA 100%
  Signature: DA4B2DE47BF583C799B4B8CD7507E6068A67C956
FILE: 117-adaro_and_digital_punk-natural_born_killers.flac
  Size: 29140902 Hash: BD71DD0A643B766B88BB4948C5F53E18 Accuracy: -m0
  Conclusion: CDDA 99%
  Signature: 7371F02FD712778D00059946DF49A0259F60FD1B
FILE: 116-gunz_for_hire-bolivia.flac
  Size: 39666470 Hash: 9F376DB87C856B30DEF8FC0EA6B1F0E9 Accuracy: -m0
  Conclusion: CDDA 100%
  Signature: EB53755C33FC428A3CD7D6C1D58AEEF8C49A8A42
FILE: 115-dj_duro-cocaine_mf_(alpha2_remix).flac
  Size: 32622181 Hash: 9A6EDB9389241DD85AE3088CDF3C589D Accuracy: -m0
  Conclusion: CDDA 100%
  Signature: D30BA8D3FC9A8B080EF85F6906A53BBC9AF3C122
FILE: 114-frontliner-all_in_this_together.flac
  Size: 28826307 Hash: D712089B08698B318626621D6AD6D7F6 Accuracy: -m0
  Conclusion: CDDA 100%
  Signature: F0E25C50AFFE7BFA230DF5CF856272F98492C4F5
FILE: 113-outlander-our_world.flac
  Size: 33632019 Hash: 1F041ED0BEBD4FF309B31CBC5F89E1A6 Accuracy: -m0
  Conclusion: CDDA 100%
  Signature: 6323D455A09376CAC796633CFFBF05C720A38EC9
FILE: 112-ran-d_and_redixx-no_cure.flac
  Size: 42924360 Hash: D880A4A94FBA491EFD66AB83E8EC8B55 Accuracy: -m0
  Conclusion: CDDA 100%
  Signature: 288C1D1C6A220F96EE098AE6D55D8CCE87DE872E
FILE: 111-zatox_and_villain-action.flac
  Size: 37575686 Hash: 0DCCEBF881E871F161BB0F194550DF82 Accuracy: -m0
  Conclusion: MPEG 90%
  Signature: 6268C1AE755857A16E43F4CA5AF4D166015CE6F7
FILE: 110-noisecontrollers-break_the_show.flac
  Size: 36994541 Hash: 7EBCC7A8D9C8E8D2EEB0EFE13B108BBF Accuracy: -m0
  Conclusion: CDDA 99%
  Signature: 76F268D3B8F6F3D641F2388A1BF6174710614F46
FILE: 109-noisecontrollers-why_so_serious.flac
  Size: 27049676 Hash: 42A9FA8EB2BECE4D306D4AE4D4DFC939 Accuracy: -m0
  Conclusion: CDDA 100%
  Signature: BF0A95598F7EF5A9C1EBD68EDE4E1E6F9FA85EDB
FILE: 108-d-block_and_s-te-fan-twisted_mind_fantasy.flac
  Size: 20713526 Hash: 7DC7DBEF5F08D151E2145D6549065299 Accuracy: -m0
  Conclusion: CDDA 100%
  Signature: B6429D6E1A1F9D0C2788F2A3EA6F74B06A28E71A
FILE: 107-noisecontrollers-experience_the_beyond.flac
  Size: 39547375 Hash: 90246E37E8B4A5596D7001F5C9A686CB Accuracy: -m0
  Conclusion: CDDA 100%
  Signature: 3F18226E989A88E1C15F77BBEBA18CFB8991EBB8
FILE: 106-noisecontrollers-feel_so_good.flac
  Size: 36945650 Hash: 85815A7642F426A83B365339A0EC856E Accuracy: -m0
  Conclusion: CDDA 100%
  Signature: 165EBE6892649F65913648DFFEDF9784A84F900E
FILE: 105-noisecontrollers-sludge.flac
  Size: 27572026 Hash: 1FD67C7F81EC29E80D06299D479FFEE6 Accuracy: -m0
  Conclusion: MPEG 99%
  Signature: B8614C05D8C003320E59C6389F54148EF63E4B8E
FILE: 104-d-block_and_s-te-fan-rebel.flac
  Size: 34764440 Hash: 59D152FD35840EE03C4BB23B88786280 Accuracy: -m0
  Conclusion: CDDA 100%
  Signature: F06D43CD18CD5BC7616027EF8F41907C706604CE

Продолжительность: 01:09:11

01. Bass Modulators - Leave The World (3:47)
02. Wildstylez - Daydreamer (2:34)
03. The Anarchist - Try And Stop Us (2:37)
04. Frontliner - I'm The Melodyman (3:36)
05. Wildstylez & Atmosfears - What It's Like (3:54)
06. Veracocha - Carte Blanche (Toneshifterz Remix) (2:37)
07. Bass Modulators - Music Is My Life (Live Edit) (4:00)
08. Frontliner feat John Harris - Halos (3:12)
09. Wildstylez feat Niels Geusebroek - Year Of Summer (2:34)
10. D-Block & S-Te-Fan - X Gonna Give It To Ya (3:31)
11. Isaac - DJ Ease My Mind (3:57)
12. F8trix - L.O.V.E. (3:15)
13. Tatanka - Let's Rock (Wildstylez Remix) (3:26)
14. Bass Modulators - Requi3m (Official Hard Bass Yellow Theme) (4:16)
15. Frontliner feat Nikkita - Death Of Demon (4:21)
16. Tatanka - Arabika (3:10)
17. The Prophet - Mindkiller (3:41)
18. Bass Modulators - Bounce & Break (2:40)
19. Technoboy & Activator - Steam Train (4:12)
20. Bass Modulators & Frequencerz - Bring Back The Funk (3:51)
Код:

Exact Audio Copy V1.0 beta 3 from 29. August 2011
EAC extraction logfile from February 2013
Yellow Team - Mixed By Bass Modulators / Hard Bass 2013 CD-2
Used drive  : XXX  Adapter: 1  ID: 1
Read mode               : Secure
Utilize accurate stream : Yes
Defeat audio cache      : Yes
Make use of C2 pointers : No
Read offset correction                      : 0
Overread into Lead-In and Lead-Out          : No
Fill up missing offset samples with silence : Yes
Delete leading and trailing silent blocks   : No
Null samples used in CRC calculations       : Yes
Used interface                              : Native Win32 interface for Win NT & 2000
Gap handling                                : Not detected, thus appended to previous track
Used output format : Internal WAV Routines
Sample format      : 44.100 Hz; 16 Bit; Stereo
TOC of the extracted CD
     Track |   Start  |  Length  | Start sector | End sector
    ---------------------------------------------------------
        1  |  0:00.00 |  3:47.35 |         0    |    17059
        2  |  3:47.35 |  2:33.44 |     17060    |    28578
        3  |  6:21.04 |  2:37.15 |     28579    |    40368
        4  |  8:58.19 |  3:35.46 |     40369    |    56539
        5  | 12:33.65 |  3:53.45 |     56540    |    74059
        6  | 16:27.35 |  2:37.26 |     74060    |    85860
        7  | 19:04.61 |  4:00.00 |     85861    |   103860
        8  | 23:04.61 |  3:12.00 |    103861    |   118260
        9  | 26:16.61 |  2:33.45 |    118261    |   129780
       10  | 28:50.31 |  3:31.15 |    129781    |   145620
       11  | 32:21.46 |  3:56.62 |    145621    |   163382
       12  | 36:18.33 |  3:15.13 |    163383    |   178020
       13  | 39:33.46 |  3:26.29 |    178021    |   193499
       14  | 43:00.00 |  4:15.67 |    193500    |   212691
       15  | 47:15.67 |  4:20.66 |    212692    |   232257
       16  | 51:36.58 |  3:10.25 |    232258    |   246532
       17  | 54:47.08 |  3:40.60 |    246533    |   263092
       18  | 58:27.68 |  2:39.73 |    263093    |   275090
       19  | 61:07.66 |  4:12.02 |    275091    |   293992
       20  | 65:19.68 |  3:51.14 |    293993    |   311331
Track  1
     Filename C:\va - hard bass\cd2\01 Leave The World.wav
     Peak level 100.0 %
     Extraction speed 2.1 X
     Track quality 100.0 %
     Copy CRC 785D8DCD
     Copy OK
Track  2
     Filename C:\va - hard bass\cd2\02 Daydreamer.wav
     Peak level 100.0 %
     Extraction speed 2.0 X
     Track quality 100.0 %
     Copy CRC 51CD7C77
     Copy OK
Track  3
     Filename C:\va - hard bass\cd2\03 Try And Stop Us.wav
     Peak level 100.0 %
     Extraction speed 2.0 X
     Track quality 100.0 %
     Copy CRC B031AF5F
     Copy OK
Track  4
     Filename C:\va - hard bass\cd2\04 I'm The Melody Man.wav
     Peak level 100.0 %
     Extraction speed 2.1 X
     Track quality 100.0 %
     Copy CRC 40E6C561
     Copy OK
Track  5
     Filename C:\va - hard bass\cd2\05 What It's Like.wav
     Peak level 100.0 %
     Extraction speed 2.1 X
     Track quality 100.0 %
     Copy CRC 359854D2
     Copy OK
Track  6
     Filename C:\va - hard bass\cd2\06 Carte Blanche (Toneshifterz Remix).wav
     Peak level 100.0 %
     Extraction speed 1.3 X
     Track quality 99.9 %
     Copy CRC B0AB0CE7
     Copy OK
Track  7
     Filename C:\va - hard bass\cd2\07 Music Is My Life (Live Edit).wav
     Peak level 100.0 %
     Extraction speed 1.5 X
     Track quality 99.9 %
     Copy CRC 515AFC67
     Copy OK
Track  8
     Filename C:\va - hard bass\cd2\08 Halos.wav
     Peak level 100.0 %
     Extraction speed 2.1 X
     Track quality 100.0 %
     Copy CRC D08BFAAD
     Copy OK
Track  9
     Filename C:\va - hard bass\cd2\09 Year Of Summer.wav
     Peak level 100.0 %
     Extraction speed 2.0 X
     Track quality 100.0 %
     Copy CRC 5FDE2F53
     Copy OK
Track 10
     Filename C:\va - hard bass\cd2\10 X Gonna Give It To Ya.wav
     Peak level 100.0 %
     Extraction speed 2.1 X
     Track quality 100.0 %
     Copy CRC 88F1D5F6
     Copy OK
Track 11
     Filename C:\va - hard bass\cd2\11 DJ Ease My Mind.wav
     Peak level 100.0 %
     Extraction speed 2.1 X
     Track quality 100.0 %
     Copy CRC 3AD95B41
     Copy OK
Track 12
     Filename C:\va - hard bass\cd2\12 L.O.V.E..wav
     Peak level 100.0 %
     Extraction speed 2.0 X
     Track quality 100.0 %
     Copy CRC 909E084A
     Copy OK
Track 13
     Filename C:\va - hard bass\cd2\13 Let's Rock (Wildstylez Remix).wav
     Peak level 100.0 %
     Extraction speed 2.1 X
     Track quality 100.0 %
     Copy CRC 110B5896
     Copy OK
Track 14
     Filename C:\va - hard bass\cd2\14 Requi3m.wav
     Peak level 100.0 %
     Extraction speed 2.1 X
     Track quality 100.0 %
     Copy CRC 34B2558C
     Copy OK
Track 15
     Filename C:\va - hard bass\cd2\15 Death Of A Demon.wav
     Peak level 100.0 %
     Extraction speed 2.1 X
     Track quality 100.0 %
     Copy CRC CD0C12A8
     Copy OK
Track 16
     Filename C:\va - hard bass\cd2\16 Arabika.wav
     Peak level 100.0 %
     Extraction speed 2.0 X
     Track quality 100.0 %
     Copy CRC BAD5216F
     Copy OK
Track 17
     Filename C:\va - hard bass\cd2\17 Mindkiller.wav
     Peak level 100.0 %
     Extraction speed 1.5 X
     Track quality 99.9 %
     Copy CRC BFCAC6C5
     Copy OK
Track 18
     Filename C:\va - hard bass\cd2\18 Bounce & Break.wav
     Peak level 100.0 %
     Extraction speed 1.9 X
     Track quality 100.0 %
     Copy CRC 2B3BE75E
     Copy OK
Track 19
     Filename C:\va - hard bass\cd2\19 Steam Train.wav
     Peak level 100.0 %
     Extraction speed 1.5 X
     Track quality 99.9 %
     Copy CRC 3413E0B6
     Copy OK
Track 20
     Filename C:\va - hard bass\cd2\20 Bring Back The funk.wav
     Peak level 100.0 %
     Extraction speed 2.1 X
     Track quality 100.0 %
     Copy CRC 7F89B448
     Copy OK
No errors occurred
End of status report
Код:

-----------------------

DON'T MODIFY THIS FILE

-----------------------

PERFORMER: auCDtect Task Manager, ver. 1.5.1RC4 build 1.5.1.5
Copyright (c) 2008-2010 y-soft. All rights reserved
http://y-soft.org

ANALYZER: auCDtect: CD records authenticity detector, version 0.8.2
Copyright (c) 2004 Oleg Berngardt. All rights reserved.
Copyright (c) 2004 Alexander Djourik. All rights reserved.

FILE: 203-the_anarchist-try_and_stop_us.flac
  Size: 21761462 Hash: 2A28C8481D4ED2367F1737135BD61B21 Accuracy: -m0
  Conclusion: CDDA 100%
  Signature: 4BBA036F0528F50EC7A54A98A367393DD3E03EDC
FILE: 202-wildstylez-daydreamer.flac
  Size: 21560553 Hash: 493C70AA05ED4FE92200F66BBCAEA668 Accuracy: -m0
  Conclusion: CDDA 100%
  Signature: 536234B1FCCD477BE57AD614EBC07D2AB650EC78
FILE: 201-bass_modulators-leave_the_world.flac
  Size: 31376999 Hash: 24246F532E3AC22F32F9BA920AB59EE3 Accuracy: -m0
  Conclusion: CDDA 100%
  Signature: 93C4A852EEB7C71B5F5A356887FC9432857F3AF1
FILE: 220-bass_modulators_and_frequencerz-bring_back_the_funk.flac
  Size: 32204513 Hash: F5F89E56D7A9ECCE8C552BA6589475F0 Accuracy: -m0
  Conclusion: CDDA 100%
  Signature: A6502A66F91896DDEA9D5318F28770C9E8BE2C0B
FILE: 219-technoboy_and_activator-steam_train.flac
  Size: 34356048 Hash: 6150F465C19D950F51E67204198C906D Accuracy: -m0
  Conclusion: CDDA 100%
  Signature: 26646184DA45B851B0DAB6516EA016AC0658549E
FILE: 218-bass_modulators-bounce_and_break.flac
  Size: 22558190 Hash: 304B8A15D0E1538BC8206ECD05173368 Accuracy: -m0
  Conclusion: CDDA 54%
  Signature: 09926F298AD7BCD5C38FE634875AE3EAF2BBCB83
FILE: 217-the_prophet-mindkiller.flac
  Size: 28937810 Hash: EAEB2053B87781F1D3B9B4572E6380CC Accuracy: -m0
  Conclusion: CDDA 100%
  Signature: 1D24CA5FAB610FAC4396F20DEA443F915F0FFDA2
FILE: 216-tatanka-arabika.flac
  Size: 24665724 Hash: D792BBF80867EA48D9AA53E729FC761C Accuracy: -m0
  Conclusion: CDDA 100%
  Signature: 2B3DE4377C16014970CDB5F5918B1C242D73EBED
FILE: 215-frontliner_feat_nikkita-death_of_demon.flac
  Size: 34021135 Hash: 3CAF8340D7ABB3B28A33A3CC68942C6A Accuracy: -m0
  Conclusion: CDDA 100%
  Signature: 62A435B1B85FD053458889282ED9A13BA3736BCD
FILE: 214-bass_modulators-requi3m_(official_hard_bass_yellow_theme).flac
  Size: 33140469 Hash: C3358B9DBD08E0A13CE5B05EBD1AA2EC Accuracy: -m0
  Conclusion: CDDA 100%
  Signature: A3230FBBE62BF6CA11EC2584045E1B7EF922FB0A
FILE: 213-tatanka-lets_rock_(wildstylez_remix).flac
  Size: 26887105 Hash: 493CDC197011E611AAE7A4265479CECE Accuracy: -m0
  Conclusion: CDDA 100%
  Signature: EA1B43EC6357217A4494C61FB792BE94FE2AFA76
FILE: 212-f8trix-love.flac
  Size: 24635476 Hash: 2DDFC07FD67963AA40D182104FF86926 Accuracy: -m0
  Conclusion: CDDA 100%
  Signature: 57339EFB9CE54BC05C6B3B256A74AE05C2CB33FA
FILE: 211-isaac-dj_ease_my_mind.flac
  Size: 27987855 Hash: C3438ED425DB3F24EB0501D5070CEC4E Accuracy: -m0
  Conclusion: CDDA 100%
  Signature: 8E14AB2297849B5CA415B6D016813491D6185F88
FILE: 210-d-block_and_s-te-fan-x_gonna_give_it_to_ya.flac
  Size: 28236166 Hash: 6327CEBB073A5F88D6B4D4EDC07B43A3 Accuracy: -m0
  Conclusion: CDDA 100%
  Signature: 189F96FAF2D086D6AC35A7473BED053C88F48432
FILE: 209-wildstylez_feat_niels_geusebroek-year_of_summer.flac
  Size: 21283911 Hash: C8444BEE5B40300BEDB772F7DE431B37 Accuracy: -m0
  Conclusion: CDDA 99%
  Signature: 458A3DB0A7E622B9394238D990137A2D3E2E41EC
FILE: 208-frontliner_feat_john_harris-halos.flac
  Size: 24666504 Hash: 80AD3E13C83D7E4BD2DCEB3653EE7B6C Accuracy: -m0
  Conclusion: CDDA 42%
  Signature: FEEADA971A89EF6E3BBD068C918CBF16B2082DD8
FILE: 207-bass_modulators-music_is_my_life_(live_edit).flac
  Size: 32972354 Hash: 1DFD3B5EA4D65C5711B8A40A423D37FB Accuracy: -m0
  Conclusion: MPEG 95%
  Signature: E0C4FFDC906DD6212A216002C31F99BC2C4CC00D
FILE: 206-veracocha-carte_blanche_(toneshifterz_remix).flac
  Size: 18673003 Hash: 0D20553FFC0708EA934A894DFA670036 Accuracy: -m0
  Conclusion: CDDA 100%
  Signature: D0068EB95DDBD96681AEDE5E274F317709795266
FILE: 205-wildstylez_and_atmosfears-what_its_like.flac
  Size: 32409287 Hash: EE7CD53E8272089CB5480084D2786CD8 Accuracy: -m0
  Conclusion: CDDA 99%
  Signature: 94E3E084270781C13D5FF716FA07B75E894ECB5D
FILE: 204-frontliner-im_the_melodyman.flac
  Size: 28374145 Hash: 06A4D8B71D9BC30E0CC03F559C75BBE9 Accuracy: -m0
  Conclusion: CDDA 100%
  Signature: B51F35C43D60340981A84261A8C6456F2351F2CB
Продолжительность: 01:08:43

01. Psyko Punkz - Stream Of Blood (4:03)
02. Wildstylez - Forever (4:16)
03. Code Black - Brighter Day (3:25)
04. Brooklyn Bounce & Technoboy - Bass, Beats & Melody (Technoboy 2010 Remix) (5:31)
05. Brennan Heart - Never Break Me (4:58)
06. Atmosfears - Connected (3:25)
07. Psyko Punkz & Villain - Psyko Soldier (Toneshifterz Remix) (3:12)
08. Wild Motherfuckers - We Don't Care (4:02)
09. Brennan Heart - Freaqshow (2:30)
10. Code Black - Revolution (3:57)
11. Zany - Nightmare Into Reality (2:58)
12. Psyko Punkz - Electrobam (Official Hard Bass Red Theme) (2:35)
13. Ran-D vs. Zatox - Hectic (4:26)
14. Zatox - Check Out The Drop (4:08)
15. Digital Punk - Burn (B-Front Remix) (4:04)
16. Hard Driver - Abyss Of Darkness (4:07)
17. Coone & B-Front - Fearless 2012 (3:57)
18. E-Force & Luna - Masterclass (3:10)
Код:

Exact Audio Copy V1.0 beta 3 from 29. August 2011
EAC extraction logfile from February 2013
Red Team - Mixed By Psyko Punkz / Hard Bass 2013 CD-3
Used drive  : XXX  Adapter: 1  ID: 1
Read mode               : Secure
Utilize accurate stream : Yes
Defeat audio cache      : Yes
Make use of C2 pointers : No
Read offset correction                      : 0
Overread into Lead-In and Lead-Out          : No
Fill up missing offset samples with silence : Yes
Delete leading and trailing silent blocks   : No
Null samples used in CRC calculations       : Yes
Used interface                              : Native Win32 interface for Win NT & 2000
Gap handling                                : Not detected, thus appended to previous track
Used output format : Internal WAV Routines
Sample format      : 44.100 Hz; 16 Bit; Stereo
TOC of the extracted CD
     Track |   Start  |  Length  | Start sector | End sector
    ---------------------------------------------------------
        1  |  0:00.00 |  4:03.33 |         0    |    18257
        2  |  4:03.33 |  4:15.74 |     18258    |    37456
        3  |  8:19.32 |  3:24.53 |     37457    |    52809
        4  | 11:44.10 |  5:31.19 |     52810    |    77653
        5  | 17:15.29 |  4:57.47 |     77654    |    99975
        6  | 22:13.01 |  3:24.60 |     99976    |   115335
        7  | 25:37.61 |  3:11.72 |    115336    |   129732
        8  | 28:49.58 |  4:01.46 |    129733    |   147853
        9  | 32:51.29 |  2:30.28 |    147854    |   159131
       10  | 35:21.57 |  3:56.62 |    159132    |   176893
       11  | 39:18.44 |  2:57.45 |    176894    |   190213
       12  | 42:16.14 |  2:35.14 |    190214    |   201852
       13  | 44:51.28 |  4:26.01 |    201853    |   221803
       14  | 49:17.29 |  4:08.30 |    221804    |   240433
       15  | 53:25.59 |  4:03.51 |    240434    |   258709
       16  | 57:29.35 |  4:07.19 |    258710    |   277253
       17  | 61:36.54 |  3:57.18 |    277254    |   295046
       18  | 65:33.72 |  3:09.70 |    295047    |   309291
Track  1
     Filename C:\va - hard bass\cd3\01 Stream Of Blood.wav
     Peak level 100.0 %
     Extraction speed 2.1 X
     Track quality 100.0 %
     Copy CRC FF216891
     Copy OK
Track  2
     Filename C:\va - hard bass\cd3\02 Forever.wav
     Peak level 100.0 %
     Extraction speed 1.5 X
     Track quality 99.9 %
     Copy CRC 63D029F7
     Copy OK
Track  3
     Filename C:\va - hard bass\cd3\03 Brighter Day.wav
     Peak level 100.0 %
     Extraction speed 2.1 X
     Track quality 100.0 %
     Copy CRC 169E489A
     Copy OK
Track  4
     Filename C:\va - hard bass\cd3\04 Bass, Beats & Melody (Technoboy 2010 Remix).wav
     Peak level 100.0 %
     Extraction speed 2.2 X
     Track quality 100.0 %
     Copy CRC AD55D48B
     Copy OK
Track  5
     Filename C:\va - hard bass\cd3\05 Never Break Me.wav
     Peak level 100.0 %
     Extraction speed 2.2 X
     Track quality 100.0 %
     Copy CRC 4539E3E7
     Copy OK
Track  6
     Filename C:\va - hard bass\cd3\06 Connected.wav
     Peak level 100.0 %
     Extraction speed 2.1 X
     Track quality 100.0 %
     Copy CRC BDC3A116
     Copy OK
Track  7
     Filename C:\va - hard bass\cd3\07 Psyko Soldier (Toneshifterz Remix).wav
     Peak level 100.0 %
     Extraction speed 2.1 X
     Track quality 100.0 %
     Copy CRC CFD70E03
     Copy OK
Track  8
     Filename C:\va - hard bass\cd3\08 We Don't Care.wav
     Peak level 100.0 %
     Extraction speed 2.1 X
     Track quality 100.0 %
     Copy CRC 82D6AB4A
     Copy OK
Track  9
     Filename C:\va - hard bass\cd3\09 Freaqshow.wav
     Peak level 100.0 %
     Extraction speed 1.2 X
     Track quality 99.9 %
     Copy CRC FB07C089
     Copy OK
Track 10
     Filename C:\va - hard bass\cd3\10 Revolution.wav
     Peak level 100.0 %
     Extraction speed 2.1 X
     Track quality 100.0 %
     Copy CRC D19D878C
     Copy OK
Track 11
     Filename C:\va - hard bass\cd3\11 Nightmare Into Reality.wav
     Peak level 100.0 %
     Extraction speed 1.3 X
     Track quality 99.9 %
     Copy CRC 421710D9
     Copy OK
Track 12
     Filename C:\va - hard bass\cd3\12 Electrobam.wav
     Peak level 100.0 %
     Extraction speed 2.0 X
     Track quality 100.0 %
     Copy CRC 05A959D1
     Copy OK
Track 13
     Filename C:\va - hard bass\cd3\13 Hectic.wav
     Peak level 100.0 %
     Extraction speed 2.1 X
     Track quality 100.0 %
     Copy CRC 67D87FAE
     Copy OK
Track 14
     Filename C:\va - hard bass\cd3\14 Check Out The Drop.wav
     Peak level 100.0 %
     Extraction speed 2.1 X
     Track quality 100.0 %
     Copy CRC 25F1982D
     Copy OK
Track 15
     Filename C:\va - hard bass\cd3\15 Burn (B-Front Remix).wav
     Peak level 100.0 %
     Extraction speed 1.5 X
     Track quality 99.9 %
     Copy CRC 15F710A9
     Copy OK
Track 16
     Filename C:\va - hard bass\cd3\16 Abyss Of Darkness.wav
     Peak level 100.0 %
     Extraction speed 2.1 X
     Track quality 100.0 %
     Copy CRC CAF59DED
     Copy OK
Track 17
     Filename C:\va - hard bass\cd3\17 Fearless 2012.wav
     Peak level 100.0 %
     Extraction speed 2.1 X
     Track quality 100.0 %
     Copy CRC 0A04C62F
     Copy OK
Track 18
     Filename C:\va - hard bass\cd3\18 Masterclass.wav
     Peak level 100.0 %
     Extraction speed 1.3 X
     Track quality 99.9 %
     Copy CRC 91B4AE3A
     Copy OK
No errors occurred
End of status report
Код:

-----------------------

DON'T MODIFY THIS FILE

-----------------------

PERFORMER: auCDtect Task Manager, ver. 1.5.1RC4 build 1.5.1.5
Copyright (c) 2008-2010 y-soft. All rights reserved
http://y-soft.org

ANALYZER: auCDtect: CD records authenticity detector, version 0.8.2
Copyright (c) 2004 Oleg Berngardt. All rights reserved.
Copyright (c) 2004 Alexander Djourik. All rights reserved.

FILE: 304-brooklyn_bounce_and_technoboy-bass_beats_and_melody_(technoboy_2010_remix).flac
  Size: 43780184 Hash: 73DCD8AEF3AE1C06A8D11FD119248CBE Accuracy: -m0
  Conclusion: CDDA 100%
  Signature: 49898F287A5353EEE2702015F13AB88880F43B98
FILE: 303-code_black-brighter_day.flac
  Size: 26488658 Hash: EACBB8538A6A4A540BE8E1E6F39F34C7 Accuracy: -m0
  Conclusion: CDDA 100%
  Signature: 4040896B28B4987E62D1F2976D560BC1F0D3650E
FILE: 302-wildstylez-forever.flac
  Size: 33280390 Hash: A023402386ACEE887F4326E9EFDFEF2A Accuracy: -m0
  Conclusion: CDDA 100%
  Signature: FD347408C7CD7D5BA475E1294AFE48DF0DC0F678
FILE: 301-psyko_punkz-stream_of_blood.flac
  Size: 32813110 Hash: 9626016F0AECFFC4F06E2516D1ECD6E3 Accuracy: -m0
  Conclusion: CDDA 99%
  Signature: 9F3E041AA65B14F18458CB4062C23F687BBE0888
FILE: 318-e-force_and_luna-masterclass.flac
  Size: 23950994 Hash: 3FEA2DC31C6C18CFCD993E4AC8D2D4DE Accuracy: -m0
  Conclusion: CDDA 100%
  Signature: AC0538F16384D37CE9C9C4D63280270990EE67D7
FILE: 317-coone_and_b-front-fearless_2012.flac
  Size: 30308305 Hash: 5179E5ECA21A54404CC4424347C70F8E Accuracy: -m0
  Conclusion: CDDA 100%
  Signature: F2BD0FFAAAE2626510AFF9562B923DF86D8E0515
FILE: 316-hard_driver-abyss_of_darkness.flac
  Size: 32833583 Hash: 48370F0F074F61CED8E4A38EB8BB2067 Accuracy: -m0
  Conclusion: CDDA 100%
  Signature: 3F8AB8B253AB0D1D57FED04F6C74CD49963B91D2
FILE: 315-digital_punk-burn_(b-front_remix).flac
  Size: 32320736 Hash: 3EE57B5F0E45904F60C2BF6D1CDA5DD3 Accuracy: -m0
  Conclusion: CDDA 100%
  Signature: D2C13F77B03DD84976FD096B2B809103E084EB57
FILE: 314-zatox-check_out_the_drop.flac
  Size: 32371467 Hash: CC2ADC5B4114EFEF8C53B9CB2995FEC1 Accuracy: -m0
  Conclusion: CDDA 100%
  Signature: 8B56427984239141FAC692B95C4943E0752585E4
FILE: 313-ran-d_vs_zatox-hectic.flac
  Size: 36610501 Hash: DA3414432CA911026EDDED3045CFAEFB Accuracy: -m0
  Conclusion: CDDA 85%
  Signature: 71B927AAB3D9781070E0DC689DA6C9D8063A449B
FILE: 312-psyko_punkz-electrobam_(official_hard_bass_red_theme).flac
  Size: 21119212 Hash: B2ECFC2F1E2F65662474ECFAEDCC8F85 Accuracy: -m0
  Conclusion: CDDA 87%
  Signature: 6039F30E7A171442A236529DD2CF5C62053B2C0B
FILE: 311-zany-nightmare_into_reality.flac
  Size: 21842700 Hash: 7D59CE07FF0B89445D9A1BE46E9BFC65 Accuracy: -m0
  Conclusion: CDDA 100%
  Signature: 126F6738C882624EC2CCFE54B3582A9BF23868D0
FILE: 310-code_black-revolution.flac
  Size: 30073932 Hash: 4AFD46CA7982D42C677B07BDA9C15B62 Accuracy: -m0
  Conclusion: CDDA 100%
  Signature: 61B08199B29B70C577F8DE9C5855314AC4CDE559
FILE: 309-brennan_heart-freaqshow.flac
  Size: 19263220 Hash: 9CDD7DBEB20DAE74E24C321C550C6CF8 Accuracy: -m0
  Conclusion: CDDA 100%
  Signature: 24BA79BE40FF4C1A9F28083E484F0442DE568607
FILE: 308-wild_motherfuckers-we_dont_care.flac
  Size: 30422576 Hash: 374DF86B833B96AE34A3CFEAF47469B2 Accuracy: -m0
  Conclusion: CDDA 99%
  Signature: 3A4EBDBB56D29EA8999ED6BF5C80FD84B12BD99B
FILE: 307-psyko_punkz_and_villain-psyko_soldier_(toneshifterz_remix).flac
  Size: 26657233 Hash: F26C4A2F68C7CD4A99216A326E3FE817 Accuracy: -m0
  Conclusion: CDDA 100%
  Signature: 41FF1831CAA8D95421D98FFCFFE8218481342846
FILE: 306-atmosfears-connected.flac
  Size: 26725882 Hash: A6088BD705A0481980A82006F59536A2 Accuracy: -m0
  Conclusion: CDDA 100%
  Signature: BBF501A68922E3FE3DF46DE87E1C60A921A4BCD6
FILE: 305-brennan_heart-never_break_me.flac
  Size: 39739448 Hash: 9094DF9C91886363FD7BFF35BDB1A307 Accuracy: -m0
  Conclusion: CDDA 100%
  Signature: C8C4AD98969D7BFCDEA98F3910F59E6A9C6100A9
Продолжительность: 01:14:47

01. Frequencerz - Burning (3:39)
02. Slimshore - Wauw (4:03)
03. The Pitcher vs. Donkey Rollers - To The End (2:27)
04. Jack Of Sound & Frequencerz - STFU (4:11)
05. B-Front - Undiscovered (Official Hard Bass Green Theme) (3:41)
06. Thera - The Breaking Point (3:14)
07. Zany & Frequencerz - Quakers (4:03)
08. Donkey Rollers - Total Domination (1:52)
09. Crypsis - Lost In The Mist (3:22)
10. Frequencerz & E-Force - Attention (2:22)
11. Digital Punk & B-Front - Spectral (3:22)
12. Crypsis - The Main MF (3:31)
13. Ran-D - Never Scared (5:20)
14. Frequencerz - Revolution (Live Edit) (4:03)
15. Thera feat MC Nolz - Don't Back Down (2:54)
16. B-Front - Mysterias (4:03)
17. Thera & Frequencerz - Incoming (3:04)
18. Dark Oscillators - Trapped (Titan Remix) (3:58)
19. Frequencerz - Bitch (3:18)
20. Acti & Jajox - Satana (3:50)
21. Crypsis - You Know (1:57)
22. B-Front & Frequencerz - Delusion (2:32)
Код:

Exact Audio Copy V1.0 beta 3 from 29. August 2011
EAC extraction logfile from February 2013
Green Team - Mixed By Frequencerz / Hard Bass 2013 CD-4
Used drive  : XXX  Adapter: 1  ID: 1
Read mode               : Secure
Utilize accurate stream : Yes
Defeat audio cache      : Yes
Make use of C2 pointers : No
Read offset correction                      : 0
Overread into Lead-In and Lead-Out          : No
Fill up missing offset samples with silence : Yes
Delete leading and trailing silent blocks   : No
Null samples used in CRC calculations       : Yes
Used interface                              : Native Win32 interface for Win NT & 2000
Gap handling                                : Not detected, thus appended to previous track
Used output format : Internal WAV Routines
Sample format      : 44.100 Hz; 16 Bit; Stereo
TOC of the extracted CD
     Track |   Start  |  Length  | Start sector | End sector
    ---------------------------------------------------------
        1  |  0:00.00 |  3:39.14 |         0    |    16438
        2  |  3:39.14 |  4:03.15 |     16439    |    34678
        3  |  7:42.29 |  2:27.15 |     34679    |    45718
        4  | 10:09.44 |  4:10.64 |     45719    |    64532
        5  | 14:20.33 |  3:41.19 |     64533    |    81126
        6  | 18:01.52 |  3:13.45 |     81127    |    95646
        7  | 21:15.22 |  4:03.15 |     95647    |   113886
        8  | 25:18.37 |  1:52.01 |    113887    |   122287
        9  | 27:10.38 |  3:21.46 |    122288    |   137408
       10  | 30:32.09 |  2:22.21 |    137409    |   148079
       11  | 32:54.30 |  3:21.46 |    148080    |   163200
       12  | 36:16.01 |  3:31.14 |    163201    |   179039
       13  | 39:47.15 |  5:19.74 |    179040    |   203038
       14  | 45:07.14 |  4:02.60 |    203039    |   221248
       15  | 49:09.74 |  2:54.32 |    221249    |   234330
       16  | 52:04.31 |  4:03.15 |    234331    |   252570
       17  | 56:07.46 |  3:04.01 |    252571    |   266371
       18  | 59:11.47 |  3:58.31 |    266372    |   284252
       19  | 63:10.03 |  3:18.31 |    284253    |   299133
       20  | 66:28.34 |  3:50.30 |    299134    |   316413
       21  | 70:18.64 |  1:56.61 |    316414    |   325174
       22  | 72:15.50 |  2:32.06 |    325175    |   336580
Track  1
     Filename C:\va - hard bass\cd4\01 Burning.wav
     Peak level 100.0 %
     Extraction speed 2.1 X
     Track quality 100.0 %
     Copy CRC 8E23B61A
     Copy OK
Track  2
     Filename C:\va - hard bass\cd4\02 Wauw.wav
     Peak level 100.0 %
     Extraction speed 2.1 X
     Track quality 100.0 %
     Copy CRC 42614409
     Copy OK
Track  3
     Filename C:\va - hard bass\cd4\03 To The End.wav
     Peak level 100.0 %
     Extraction speed 1.9 X
     Track quality 100.0 %
     Copy CRC 46622859
     Copy OK
Track  4
     Filename C:\va - hard bass\cd4\04 Stfu.wav
     Peak level 100.0 %
     Extraction speed 2.1 X
     Track quality 100.0 %
     Copy CRC D25057A9
     Copy OK
Track  5
     Filename C:\va - hard bass\cd4\05 Undiscovered.wav
     Peak level 100.0 %
     Extraction speed 2.1 X
     Track quality 100.0 %
     Copy CRC 8F0F2478
     Copy OK
Track  6
     Filename C:\va - hard bass\cd4\06 The Breaking Point.wav
     Peak level 100.0 %
     Extraction speed 2.0 X
     Track quality 100.0 %
     Copy CRC 7E2B080F
     Copy OK
Track  7
     Filename C:\va - hard bass\cd4\07 Quakers.wav
     Peak level 100.0 %
     Extraction speed 2.1 X
     Track quality 100.0 %
     Copy CRC EFFDA8CE
     Copy OK
Track  8
     Filename C:\va - hard bass\cd4\08 Total Domination.wav
     Peak level 100.0 %
     Extraction speed 1.8 X
     Track quality 100.0 %
     Copy CRC EF18196F
     Copy OK
Track  9
     Filename C:\va - hard bass\cd4\09 Lost In The Mist.wav
     Peak level 100.0 %
     Extraction speed 2.1 X
     Track quality 100.0 %
     Copy CRC F1864CC2
     Copy OK
Track 10
     Filename C:\va - hard bass\cd4\10 Attention.wav
     Peak level 100.0 %
     Extraction speed 1.9 X
     Track quality 100.0 %
     Copy CRC 5C694C70
     Copy OK
Track 11
     Filename C:\va - hard bass\cd4\11 Spectral.wav
     Peak level 100.0 %
     Extraction speed 2.1 X
     Track quality 100.0 %
     Copy CRC 830AF187
     Copy OK
Track 12
     Filename C:\va - hard bass\cd4\12 The Main MF.wav
     Peak level 100.0 %
     Extraction speed 1.4 X
     Track quality 99.9 %
     Copy CRC 9EF4B1F3
     Copy OK
Track 13
     Filename C:\va - hard bass\cd4\13 Never Scared.wav
     Peak level 100.0 %
     Extraction speed 2.2 X
     Track quality 100.0 %
     Copy CRC CDC67817
     Copy OK
Track 14
     Filename C:\va - hard bass\cd4\14 Revolution (Live Edit).wav
     Peak level 100.0 %
     Extraction speed 2.1 X
     Track quality 100.0 %
     Copy CRC 58BCE1A6
     Copy OK
Track 15
     Filename C:\va - hard bass\cd4\15 Don't Black Down.wav
     Peak level 100.0 %
     Extraction speed 2.0 X
     Track quality 100.0 %
     Copy CRC F80E1683
     Copy OK
Track 16
     Filename C:\va - hard bass\cd4\16 Mysterias.wav
     Peak level 100.0 %
     Extraction speed 2.1 X
     Track quality 100.0 %
     Copy CRC C6391EF6
     Copy OK
Track 17
     Filename C:\va - hard bass\cd4\17 Incoming.wav
     Peak level 100.0 %
     Extraction speed 2.0 X
     Track quality 100.0 %
     Copy CRC 33C389B4
     Copy OK
Track 18
     Filename C:\va - hard bass\cd4\18 Trapped (Titan Remix).wav
     Peak level 100.0 %
     Extraction speed 1.5 X
     Track quality 99.9 %
     Copy CRC 6525D753
     Copy OK
Track 19
     Filename C:\va - hard bass\cd4\19 Bitch.wav
     Peak level 100.0 %
     Extraction speed 2.1 X
     Track quality 100.0 %
     Copy CRC E2132CFE
     Copy OK
Track 20
     Filename C:\va - hard bass\cd4\20 Satana.wav
     Peak level 100.0 %
     Extraction speed 1.5 X
     Track quality 99.9 %
     Copy CRC 71B0E9A0
     Copy OK
Track 21
     Filename C:\va - hard bass\cd4\21 You Know.wav
     Peak level 100.0 %
     Extraction speed 1.8 X
     Track quality 100.0 %
     Copy CRC 1755EB35
     Copy OK
Track 22
     Filename C:\va - hard bass\cd4\22 Delusion.wav
     Peak level 100.0 %
     Extraction speed 1.2 X
     Track quality 99.9 %
     Copy CRC A1B808FE
     Copy OK
No errors occurred
End of status report
Код:

-----------------------

DON'T MODIFY THIS FILE

-----------------------

PERFORMER: auCDtect Task Manager, ver. 1.5.1RC6 build 1.5.1.7
Copyright (c) 2008-2010 y-soft. All rights reserved
http://y-soft.org

ANALYZER: auCDtect: CD records authenticity detector, version 0.8.2
Copyright (c) 2004 Oleg Berngardt. All rights reserved.
Copyright (c) 2004 Alexander Djourik. All rights reserved.

FILE: 318-e-force_and_luna-masterclass.flac
  Size: 23950994 Hash: 3FEA2DC31C6C18CFCD993E4AC8D2D4DE Accuracy: -m0
  Conclusion: CDDA 100%
  Signature: AC0538F16384D37CE9C9C4D63280270990EE67D7
FILE: 317-coone_and_b-front-fearless_2012.flac
  Size: 30308305 Hash: 5179E5ECA21A54404CC4424347C70F8E Accuracy: -m0
  Conclusion: CDDA 100%
  Signature: F2BD0FFAAAE2626510AFF9562B923DF86D8E0515
FILE: 316-hard_driver-abyss_of_darkness.flac
  Size: 32833583 Hash: 48370F0F074F61CED8E4A38EB8BB2067 Accuracy: -m0
  Conclusion: CDDA 100%
  Signature: 3F8AB8B253AB0D1D57FED04F6C74CD49963B91D2
FILE: 315-digital_punk-burn_(b-front_remix).flac
  Size: 32320736 Hash: 3EE57B5F0E45904F60C2BF6D1CDA5DD3 Accuracy: -m0
  Conclusion: CDDA 100%
  Signature: D2C13F77B03DD84976FD096B2B809103E084EB57
FILE: 314-zatox-check_out_the_drop.flac
  Size: 32371467 Hash: CC2ADC5B4114EFEF8C53B9CB2995FEC1 Accuracy: -m0
  Conclusion: CDDA 100%
  Signature: 8B56427984239141FAC692B95C4943E0752585E4
FILE: 313-ran-d_vs_zatox-hectic.flac
  Size: 36610501 Hash: DA3414432CA911026EDDED3045CFAEFB Accuracy: -m0
  Conclusion: CDDA 85%
  Signature: 71B927AAB3D9781070E0DC689DA6C9D8063A449B
FILE: 312-psyko_punkz-electrobam_(official_hard_bass_red_theme).flac
  Size: 21119212 Hash: B2ECFC2F1E2F65662474ECFAEDCC8F85 Accuracy: -m0
  Conclusion: CDDA 87%
  Signature: 6039F30E7A171442A236529DD2CF5C62053B2C0B
FILE: 311-zany-nightmare_into_reality.flac
  Size: 21842700 Hash: 7D59CE07FF0B89445D9A1BE46E9BFC65 Accuracy: -m0
  Conclusion: CDDA 100%
  Signature: 126F6738C882624EC2CCFE54B3582A9BF23868D0
FILE: 310-code_black-revolution.flac
  Size: 30073932 Hash: 4AFD46CA7982D42C677B07BDA9C15B62 Accuracy: -m0
  Conclusion: CDDA 100%
  Signature: 61B08199B29B70C577F8DE9C5855314AC4CDE559
FILE: 309-brennan_heart-freaqshow.flac
  Size: 19263220 Hash: 9CDD7DBEB20DAE74E24C321C550C6CF8 Accuracy: -m0
  Conclusion: CDDA 100%
  Signature: 24BA79BE40FF4C1A9F28083E484F0442DE568607
FILE: 308-wild_motherfuckers-we_dont_care.flac
  Size: 30422576 Hash: 374DF86B833B96AE34A3CFEAF47469B2 Accuracy: -m0
  Conclusion: CDDA 99%
  Signature: 3A4EBDBB56D29EA8999ED6BF5C80FD84B12BD99B
FILE: 307-psyko_punkz_and_villain-psyko_soldier_(toneshifterz_remix).flac
  Size: 26657233 Hash: F26C4A2F68C7CD4A99216A326E3FE817 Accuracy: -m0
  Conclusion: CDDA 100%
  Signature: 41FF1831CAA8D95421D98FFCFFE8218481342846
FILE: 306-atmosfears-connected.flac
  Size: 26725882 Hash: A6088BD705A0481980A82006F59536A2 Accuracy: -m0
  Conclusion: CDDA 100%
  Signature: BBF501A68922E3FE3DF46DE87E1C60A921A4BCD6
FILE: 305-brennan_heart-never_break_me.flac
  Size: 39739448 Hash: 9094DF9C91886363FD7BFF35BDB1A307 Accuracy: -m0
  Conclusion: CDDA 100%
  Signature: C8C4AD98969D7BFCDEA98F3910F59E6A9C6100A9
FILE: 304-brooklyn_bounce_and_technoboy-bass_beats_and_melody_(technoboy_2010_remix).flac
  Size: 43780184 Hash: 73DCD8AEF3AE1C06A8D11FD119248CBE Accuracy: -m0
  Conclusion: CDDA 100%
  Signature: 49898F287A5353EEE2702015F13AB88880F43B98
FILE: 303-code_black-brighter_day.flac
  Size: 26488658 Hash: EACBB8538A6A4A540BE8E1E6F39F34C7 Accuracy: -m0
  Conclusion: CDDA 100%
  Signature: 4040896B28B4987E62D1F2976D560BC1F0D3650E
FILE: 302-wildstylez-forever.flac
  Size: 33280390 Hash: A023402386ACEE887F4326E9EFDFEF2A Accuracy: -m0
  Conclusion: CDDA 100%
  Signature: FD347408C7CD7D5BA475E1294AFE48DF0DC0F678
FILE: 301-psyko_punkz-stream_of_blood.flac
  Size: 32813110 Hash: 9626016F0AECFFC4F06E2516D1ECD6E3 Accuracy: -m0
  Conclusion: CDDA 99%
  Signature: 9F3E041AA65B14F18458CB4062C23F687BBE0888
FILE: 220-bass_modulators_and_frequencerz-bring_back_the_funk.flac
  Size: 32204513 Hash: F5F89E56D7A9ECCE8C552BA6589475F0 Accuracy: -m0
  Conclusion: CDDA 100%
  Signature: A6502A66F91896DDEA9D5318F28770C9E8BE2C0B
FILE: 219-technoboy_and_activator-steam_train.flac
  Size: 34356048 Hash: 6150F465C19D950F51E67204198C906D Accuracy: -m0
  Conclusion: CDDA 100%
  Signature: 26646184DA45B851B0DAB6516EA016AC0658549E
FILE: 218-bass_modulators-bounce_and_break.flac
  Size: 22558190 Hash: 304B8A15D0E1538BC8206ECD05173368 Accuracy: -m0
  Conclusion: CDDA 54%
  Signature: 09926F298AD7BCD5C38FE634875AE3EAF2BBCB83
FILE: 217-the_prophet-mindkiller.flac
  Size: 28937810 Hash: EAEB2053B87781F1D3B9B4572E6380CC Accuracy: -m0
  Conclusion: CDDA 100%
  Signature: 1D24CA5FAB610FAC4396F20DEA443F915F0FFDA2
FILE: 216-tatanka-arabika.flac
  Size: 24665724 Hash: D792BBF80867EA48D9AA53E729FC761C Accuracy: -m0
  Conclusion: CDDA 100%
  Signature: 2B3DE4377C16014970CDB5F5918B1C242D73EBED
FILE: 215-frontliner_feat_nikkita-death_of_demon.flac
  Size: 34021135 Hash: 3CAF8340D7ABB3B28A33A3CC68942C6A Accuracy: -m0
  Conclusion: CDDA 100%
  Signature: 62A435B1B85FD053458889282ED9A13BA3736BCD
FILE: 214-bass_modulators-requi3m_(official_hard_bass_yellow_theme).flac
  Size: 33140469 Hash: C3358B9DBD08E0A13CE5B05EBD1AA2EC Accuracy: -m0
  Conclusion: CDDA 100%
  Signature: A3230FBBE62BF6CA11EC2584045E1B7EF922FB0A
FILE: 213-tatanka-lets_rock_(wildstylez_remix).flac
  Size: 26887105 Hash: 493CDC197011E611AAE7A4265479CECE Accuracy: -m0
  Conclusion: CDDA 100%
  Signature: EA1B43EC6357217A4494C61FB792BE94FE2AFA76
FILE: 212-f8trix-love.flac
  Size: 24635476 Hash: 2DDFC07FD67963AA40D182104FF86926 Accuracy: -m0
  Conclusion: CDDA 100%
  Signature: 57339EFB9CE54BC05C6B3B256A74AE05C2CB33FA
FILE: 211-isaac-dj_ease_my_mind.flac
  Size: 27987855 Hash: C3438ED425DB3F24EB0501D5070CEC4E Accuracy: -m0
  Conclusion: CDDA 100%
  Signature: 8E14AB2297849B5CA415B6D016813491D6185F88
FILE: 210-d-block_and_s-te-fan-x_gonna_give_it_to_ya.flac
  Size: 28236166 Hash: 6327CEBB073A5F88D6B4D4EDC07B43A3 Accuracy: -m0
  Conclusion: CDDA 100%
  Signature: 189F96FAF2D086D6AC35A7473BED053C88F48432
FILE: 209-wildstylez_feat_niels_geusebroek-year_of_summer.flac
  Size: 21283911 Hash: C8444BEE5B40300BEDB772F7DE431B37 Accuracy: -m0
  Conclusion: CDDA 99%
  Signature: 458A3DB0A7E622B9394238D990137A2D3E2E41EC
FILE: 208-frontliner_feat_john_harris-halos.flac
  Size: 24666504 Hash: 80AD3E13C83D7E4BD2DCEB3653EE7B6C Accuracy: -m0
  Conclusion: CDDA 42%
  Signature: FEEADA971A89EF6E3BBD068C918CBF16B2082DD8
FILE: 207-bass_modulators-music_is_my_life_(live_edit).flac
  Size: 32972354 Hash: 1DFD3B5EA4D65C5711B8A40A423D37FB Accuracy: -m0
  Conclusion: MPEG 95%
  Signature: E0C4FFDC906DD6212A216002C31F99BC2C4CC00D
FILE: 206-veracocha-carte_blanche_(toneshifterz_remix).flac
  Size: 18673003 Hash: 0D20553FFC0708EA934A894DFA670036 Accuracy: -m0
  Conclusion: CDDA 100%
  Signature: D0068EB95DDBD96681AEDE5E274F317709795266
FILE: 205-wildstylez_and_atmosfears-what_its_like.flac
  Size: 32409287 Hash: EE7CD53E8272089CB5480084D2786CD8 Accuracy: -m0
  Conclusion: CDDA 99%
  Signature: 94E3E084270781C13D5FF716FA07B75E894ECB5D
FILE: 204-frontliner-im_the_melodyman.flac
  Size: 28374145 Hash: 06A4D8B71D9BC30E0CC03F559C75BBE9 Accuracy: -m0
  Conclusion: CDDA 100%
  Signature: B51F35C43D60340981A84261A8C6456F2351F2CB
FILE: 203-the_anarchist-try_and_stop_us.flac
  Size: 21761462 Hash: 2A28C8481D4ED2367F1737135BD61B21 Accuracy: -m0
  Conclusion: CDDA 100%
  Signature: 4BBA036F0528F50EC7A54A98A367393DD3E03EDC
FILE: 202-wildstylez-daydreamer.flac
  Size: 21560553 Hash: 493C70AA05ED4FE92200F66BBCAEA668 Accuracy: -m0
  Conclusion: CDDA 100%
  Signature: 536234B1FCCD477BE57AD614EBC07D2AB650EC78
FILE: 201-bass_modulators-leave_the_world.flac
  Size: 31376999 Hash: 24246F532E3AC22F32F9BA920AB59EE3 Accuracy: -m0
  Conclusion: CDDA 100%
  Signature: 93C4A852EEB7C71B5F5A356887FC9432857F3AF1
FILE: 118-code_black-revolution_(official_hard_bass_blue_theme).flac
  Size: 33188837 Hash: 4471FA68CAEE24E36F6FD94C1A2734B0 Accuracy: -m0
  Conclusion: CDDA 100%
  Signature: DA4B2DE47BF583C799B4B8CD7507E6068A67C956
FILE: 117-adaro_and_digital_punk-natural_born_killers.flac
  Size: 29140902 Hash: BD71DD0A643B766B88BB4948C5F53E18 Accuracy: -m0
  Conclusion: CDDA 99%
  Signature: 7371F02FD712778D00059946DF49A0259F60FD1B
FILE: 116-gunz_for_hire-bolivia.flac
  Size: 39666470 Hash: 9F376DB87C856B30DEF8FC0EA6B1F0E9 Accuracy: -m0
  Conclusion: CDDA 100%
  Signature: EB53755C33FC428A3CD7D6C1D58AEEF8C49A8A42
FILE: 115-dj_duro-cocaine_mf_(alpha2_remix).flac
  Size: 32622181 Hash: 9A6EDB9389241DD85AE3088CDF3C589D Accuracy: -m0
  Conclusion: CDDA 100%
  Signature: D30BA8D3FC9A8B080EF85F6906A53BBC9AF3C122
FILE: 114-frontliner-all_in_this_together.flac
  Size: 28826307 Hash: D712089B08698B318626621D6AD6D7F6 Accuracy: -m0
  Conclusion: CDDA 100%
  Signature: F0E25C50AFFE7BFA230DF5CF856272F98492C4F5
FILE: 113-outlander-our_world.flac
  Size: 33632019 Hash: 1F041ED0BEBD4FF309B31CBC5F89E1A6 Accuracy: -m0
  Conclusion: CDDA 100%
  Signature: 6323D455A09376CAC796633CFFBF05C720A38EC9
FILE: 112-ran-d_and_redixx-no_cure.flac
  Size: 42924360 Hash: D880A4A94FBA491EFD66AB83E8EC8B55 Accuracy: -m0
  Conclusion: CDDA 100%
  Signature: 288C1D1C6A220F96EE098AE6D55D8CCE87DE872E
FILE: 111-zatox_and_villain-action.flac
  Size: 37575686 Hash: 0DCCEBF881E871F161BB0F194550DF82 Accuracy: -m0
  Conclusion: MPEG 90%
  Signature: 6268C1AE755857A16E43F4CA5AF4D166015CE6F7
FILE: 110-noisecontrollers-break_the_show.flac
  Size: 36994541 Hash: 7EBCC7A8D9C8E8D2EEB0EFE13B108BBF Accuracy: -m0
  Conclusion: CDDA 99%
  Signature: 76F268D3B8F6F3D641F2388A1BF6174710614F46
FILE: 109-noisecontrollers-why_so_serious.flac
  Size: 27049676 Hash: 42A9FA8EB2BECE4D306D4AE4D4DFC939 Accuracy: -m0
  Conclusion: CDDA 100%
  Signature: BF0A95598F7EF5A9C1EBD68EDE4E1E6F9FA85EDB
FILE: 108-d-block_and_s-te-fan-twisted_mind_fantasy.flac
  Size: 20713526 Hash: 7DC7DBEF5F08D151E2145D6549065299 Accuracy: -m0
  Conclusion: CDDA 100%
  Signature: B6429D6E1A1F9D0C2788F2A3EA6F74B06A28E71A
FILE: 107-noisecontrollers-experience_the_beyond.flac
  Size: 39547375 Hash: 90246E37E8B4A5596D7001F5C9A686CB Accuracy: -m0
  Conclusion: CDDA 100%
  Signature: 3F18226E989A88E1C15F77BBEBA18CFB8991EBB8
FILE: 106-noisecontrollers-feel_so_good.flac
  Size: 36945650 Hash: 85815A7642F426A83B365339A0EC856E Accuracy: -m0
  Conclusion: CDDA 100%
  Signature: 165EBE6892649F65913648DFFEDF9784A84F900E
FILE: 105-noisecontrollers-sludge.flac
  Size: 27572026 Hash: 1FD67C7F81EC29E80D06299D479FFEE6 Accuracy: -m0
  Conclusion: MPEG 99%
  Signature: B8614C05D8C003320E59C6389F54148EF63E4B8E
FILE: 104-d-block_and_s-te-fan-rebel.flac
  Size: 34764440 Hash: 59D152FD35840EE03C4BB23B88786280 Accuracy: -m0
  Conclusion: CDDA 100%
  Signature: F06D43CD18CD5BC7616027EF8F41907C706604CE
FILE: 103-wildstylez-soundstorm.flac
  Size: 40851965 Hash: 44FE253FA1B180B19474FA0A6A2291D0 Accuracy: -m0
  Conclusion: CDDA 100%
  Signature: 4B8F740972EA518E40E9556B560F061683B62815
FILE: 102-brennan_heart-one_blade.flac
  Size: 7500375 Hash: 673D13E80646FBE454A24C8D90B7E8EA Accuracy: -m0
  Conclusion: CDDA 86%
  Signature: D7C8FC84281234930C28952093498B3A155D472B
FILE: 101-noisecontrollers-so_high.flac
  Size: 18230371 Hash: 8D3AD565FB44FA5FDB242B9E64035D15 Accuracy: -m0
  Conclusion: CDDA 100%
  Signature: B14A16CD5755C6B91F413F8311DA0604AF64EAE7
FILE: 408-donkey_rollers-total_domination.flac
  Size: 15655713 Hash: 8319CF3C1563ADF8337DFA8AF044BC20 Accuracy: -m0
  Conclusion: CDDA 100%
  Signature: 275D2140D969FAF491E073646D213D30AEEAB318
FILE: 407-zany_and_frequencerz-quakers.flac
  Size: 34436877 Hash: 4071095C99DC1DCF81715E8044B8F8DD Accuracy: -m0
  Conclusion: CDDA 100%
  Signature: 05CF479A821B42ADCF5A28807033064561AF08CD
FILE: 406-thera-the_breaking_point.flac
  Size: 25972563 Hash: FF7F82F77596FB1F08A70686E0BA2E3C Accuracy: -m0
  Conclusion: CDDA 100%
  Signature: 54B04386522DBC94AB95C1937D6406F085D42D39
FILE: 405-b-front-undiscovered_(official_hard_bass_green_theme).flac
  Size: 28390690 Hash: AACA8E6B468ABAE2FEE24A7C0B3D087A Accuracy: -m0
  Conclusion: MPEG 95%
  Signature: A58CA22B31B31E5977C467BB894B431E66626E41
FILE: 404-jack_of_sound_and_frequencerz-stfu.flac
  Size: 34188518 Hash: 0024E8886A47F59F6960975D1931B1F9 Accuracy: -m0
  Conclusion: CDDA 100%
  Signature: 4342D025578BCD87CC47F212FDB2A9778A868541
FILE: 403-the_pitcher_vs_donkey_rollers-to_the_end.flac
  Size: 21109950 Hash: 05707F1E62B80E222C9615D9A550D74C Accuracy: -m0
  Conclusion: CDDA 100%
  Signature: 97AFC23B276794CA24080C1787BFDE28078F1862
FILE: 402-slimshore-wauw.flac
  Size: 32535295 Hash: F3609AAE971B80B8DB2CDBB61275673F Accuracy: -m0
  Conclusion: CDDA 100%
  Signature: E3BCCBD76F71844D89DCEAE08F0FF368AA84774E
FILE: 401-frequencerz-burning.flac
  Size: 31010745 Hash: D4094978CA2C469CC6CDCF0599ADCE9A Accuracy: -m0
  Conclusion: CDDA 100%
  Signature: 694C1442C6BBCBBF1454E6F4943F2A0328DFB861
FILE: 422-b-front_and_frequencerz-delusion.flac
  Size: 19695681 Hash: 2209E72BECFFDE1B787FB24899048984 Accuracy: -m0
  Conclusion: CDDA 100%
  Signature: A4C67D11A35F1CF56CDC11F763B9DC10EFF2B5C1
FILE: 421-crypsis-you_know.flac
  Size: 14910437 Hash: C1617660901F978CCB0FE089A788263E Accuracy: -m0
  Conclusion: CDDA 100%
  Signature: 31F5817B0A362E503027559C9D284467513BA74A
FILE: 420-acti_and_jajox-satana.flac
  Size: 29695462 Hash: 7036B442FA73B867C13FC40CF05BBD18 Accuracy: -m0
  Conclusion: MPEG 95%
  Signature: 89B9421377B016D8990459569C419284A7CB572E
FILE: 419-frequencerz-bitch.flac
  Size: 27990194 Hash: EBDC9816740E2F5B573EC2593710334E Accuracy: -m0
  Conclusion: CDDA 100%
  Signature: 690B2455E59F96251FD3F55A1599A2AAB31D90CC
FILE: 418-dark_oscillators-trapped_(titan_remix).flac
  Size: 32915366 Hash: E4140109C4AF5767F401FA9812B5EEB4 Accuracy: -m0
  Conclusion: CDDA 100%
  Signature: B0C11A144F67E7C43A9BD08BA91EBB9434630326
FILE: 417-thera_and_frequencerz-incoming.flac
  Size: 24409978 Hash: 7FD6E3C8AFC8875890A777D03704989C Accuracy: -m0
  Conclusion: MPEG 91%
  Signature: D9F86C171A52CB26ABDAEBDAA2E5DEB9E5897BA1
FILE: 416-b-front-mysterias.flac
  Size: 32210498 Hash: 618C666682051B9F1515DD817D29C5C6 Accuracy: -m0
  Conclusion: MPEG 100%
  Signature: 5007FA5F0D21537BDF0B5B2E4636211CDE81A325
FILE: 415-thera_feat_mc_nolz-dont_back_down.flac
  Size: 24479164 Hash: 20FC142B54A51410053FB09DBF52E633 Accuracy: -m0
  Conclusion: CDDA 100%
  Signature: 24926ACEC062A4459E2641DAD1DA0407FB90EEDA
FILE: 414-frequencerz-revolution_(live_edit).flac
  Size: 31984503 Hash: FC789D2AC4901E9089D7D1575FF0C715 Accuracy: -m0
  Conclusion: CDDA 100%
  Signature: B5E28EDBE93DC9E7BAF2FCCDABED64FDC86B9D96
FILE: 413-ran-d-never_scared.flac
  Size: 44342022 Hash: 4DA9E5DA2B1811E887EC6F39A964307C Accuracy: -m0
  Conclusion: CDDA 100%
  Signature: 4A0D8DA20164524F8E52A9A21742C61B218F2250
FILE: 412-crypsis-the_main_mf.flac
  Size: 28506766 Hash: 033691EB7A222059B08E89A632821CE7 Accuracy: -m0
  Conclusion: MPEG 95%
  Signature: 67AB0059EE1109A13FB0BA1C2197CD6A6BE648D0
FILE: 411-digital_punk_and_b-front-spectral.flac
  Size: 27265718 Hash: 0CECA7D9805A4AF0927710EB86714260 Accuracy: -m0
  Conclusion: MPEG 95%
  Signature: AD6562E2E7F3B31F0D1706EA4F49F3457716A5E1
FILE: 410-frequencerz_and_e-force-attention.flac
  Size: 19652272 Hash: 9727252B52161181237B8035FC96C868 Accuracy: -m0
  Conclusion: CDDA 100%
  Signature: 749D5112BB14F2328E66DDCD355D6DC9FC4D74A4
FILE: 409-crypsis-lost_in_the_mist.flac
  Size: 26217735 Hash: 1FAA643380C66188E8E881409D1E837D Accuracy: -m0
  Conclusion: CDDA 100%
  Signature: 031684FCDF3BC94D12A6199664FC05C64BA7E2BF

Раздача в Mp3 от оболтуса KoenCCXR :D

Время раздачи: C 15:00 до 1:30
-m0
Conclusion
[NNM-Club.ru]_VA-Hard_Bass_2013-(BYMCD034)-4CD-FLAC-2013-SPL.torrent
 Торрент: Платиновая раздача  Зарегистрирован
 
Скачать


 Зарегистрирован:   09 Фев 2013 22:06:06
 Размер:   2,27 GB  (
 Рейтинг:   4,7 (Голосов: 24)
 Поблагодарили:   54
 Проверка:   Оформление проверено модератором 11 Фев 2013 13:34:29
Как cкачать  ·  Как раздать  ·  Правильно оформить  ·  Поднять ратио!  
dTb
Стаж: 7 лет 3 мес.
Сообщений: 9
Ratio: 33,454
61.72%
Встаньте кто нить на раздачу плз. очень хочется послушать!

Добавлено спустя 4 часа 27 минут 33 секунды:

Написано с 1500 раздача... кто нибудь. Встаньте на раздачу!
:смущение:
dTb
Стаж: 7 лет 3 мес.
Сообщений: 9
Ratio: 33,454
61.72%
спасибо!
Показать сообщения:   
Начать новую тему   Ответить на тему    Торрент-трекер NNM-Club -> Electronic -> Hardstyle, Jumpstyle, Hardcore (Lossless) Часовой пояс: GMT + 3
Страница 1 из 1