Классический форум-трекер
canvas not supported
Нас вместе: 4 077 793

Боб Дилан / Bob Dylan - Liverpool 2001 (2001) CamRip


 
 
RSS
Начать новую тему   Ответить на тему    Торрент-трекер NNM-Club -> Архив торрентов -> Архив Музыкального Видео
Автор Сообщение
Borislav1986 ®
Стаж: 8 лет 4 мес.
Сообщений: 2
Ratio: 10,057
Поблагодарили: 195
100%
russia.gif
Боб Дилан / Bob Dylan - Liverpool 2001 (2001) CamRip
Русское название: Боб Дилан
Оригинальное название: Bob Dylan - Liverpool 2001
Год выпуска: 2001
Жанр: ROCK

Описание фильма:
Концерт в Ливерпуле

Треклист:
1 - Oh Babe, It Ain't No Lie
2 - To Ramona
3 - Desolation Row
4 - Maggie's Farm
5 - Just Like A Woman
6 - This Wheel's On Fire
7 - Visions Of Johanna
8 - 4th Time Around
9 - Boots Of Spanish Leather
10 - Stuck Inside Of Mobile With The Memphis Blues Again
11 - Positively 4th Street
12 - Cold Irons Bound
13 - Leopard-Skin Pill-Box Hat
14 - Things Have Changed
15 - Like A Rolling Stone
16 - Knockin' On Heaven's Door
17 - All Along The Watchtower
18 - I Shall Be Released
19 - Highway 61 Revisited
20 - Blowin' in the Wind
21 - Rainy Day Women

Продолжительность: 2:05:19
Перевод: Отсутствует
Язык: Английский

Видеокодек: AVC
Битрейт видео: ~865 кб/c
Размер кадра: 854x480
Качество видео: CamRip
Аудиокодек: AAC
Битрейт аудио: 128 кб/с
Общее
Полное имя : C:\Users\Borislav\Desktop\1\Bob Dylan - Liverpool 2001\1.FLV
Формат : Flash Video
Размер файла : 74,8 Мбайт
Продолжительность : 10 м.
Общий поток : 983 Кбит/сек
httphostheader : o-o.preferred.fra07t11.v1.cache6.c.youtube.com

Видео
Формат : AVC
Формат/Информация : Advanced Video Codec
Профиль формата : Main@L3.0
Параметр CABAC формата : Да
Параметр ReFrames формата : 3 кадра
Параметр GOP формата : M=1, N=25
Идентификатор кодека : 7
Продолжительность : 10 м.
Битрейт : 846 Кбит/сек
Ширина : 854 пикселя
Высота : 480 пикселей
Соотношение сторон : 16:9
Режим частоты кадров : Постоянный
Частота кадров : 25,000 кадров/сек
Цветовое пространство : YUV
Субдискретизация насыщенности : 4:2:0
Битовая глубина : 8 бит
Тип развёртки : Прогрессивная
Бит/(Пиксели*Кадры) : 0.083
Размер потока : 64,4 Мбайт (86%)

Аудио
Формат : AAC
Формат/Информация : Advanced Audio Codec
Профиль формата : LC
Идентификатор кодека : 10
Продолжительность : 10 м.
Битрейт : 129 Кбит/сек
Каналы : 2 канала
Расположение каналов : Front: L R
Частота : 44,1 КГц
Метод сжатия : С потерями
Размер потока : 9,79 Мбайт (13%)

Общее
Полное имя : C:\Users\Borislav\Desktop\1\Bob Dylan - Liverpool 2001\11.FLV
Формат : Flash Video
Размер файла : 57,9 Мбайт
Продолжительность : 7 м. 20 с.
Общий поток : 1101 Кбит/сек
httphostheader : o-o.preferred.fra07t11.v4.cache2.c.youtube.com

Видео
Формат : AVC
Формат/Информация : Advanced Video Codec
Профиль формата : Main@L3.0
Параметр CABAC формата : Да
Параметр ReFrames формата : 3 кадра
Параметр GOP формата : M=1, N=25
Идентификатор кодека : 7
Продолжительность : 7 м. 20 с.
Битрейт : 964 Кбит/сек
Ширина : 854 пикселя
Высота : 480 пикселей
Соотношение сторон : 16:9
Режим частоты кадров : Постоянный
Частота кадров : 25,000 кадров/сек
Цветовое пространство : YUV
Субдискретизация насыщенности : 4:2:0
Битовая глубина : 8 бит
Тип развёртки : Прогрессивная
Бит/(Пиксели*Кадры) : 0.094
Размер потока : 50,7 Мбайт (88%)

Аудио
Формат : AAC
Формат/Информация : Advanced Audio Codec
Профиль формата : LC
Идентификатор кодека : 10
Продолжительность : 7 м. 20 с.
Битрейт : 129 Кбит/сек
Каналы : 2 канала
Расположение каналов : Front: L R
Частота : 44,1 КГц
Метод сжатия : С потерями
Размер потока : 6,76 Мбайт (12%)

Общее
Полное имя : C:\Users\Borislav\Desktop\1\Bob Dylan - Liverpool 2001\12.FLV
Формат : Flash Video
Размер файла : 41,8 Мбайт
Продолжительность : 5 м. 51 с.
Общий поток : 997 Кбит/сек
httphostheader : o-o.preferred.fra07t11.v5.cache2.c.youtube.com

Видео
Формат : AVC
Формат/Информация : Advanced Video Codec
Профиль формата : Main@L3.0
Параметр CABAC формата : Да
Параметр ReFrames формата : 3 кадра
Параметр GOP формата : M=1, N=25
Идентификатор кодека : 7
Продолжительность : 5 м. 51 с.
Битрейт : 860 Кбит/сек
Ширина : 854 пикселя
Высота : 480 пикселей
Соотношение сторон : 16:9
Режим частоты кадров : Постоянный
Частота кадров : 25,000 кадров/сек
Цветовое пространство : YUV
Субдискретизация насыщенности : 4:2:0
Битовая глубина : 8 бит
Тип развёртки : Прогрессивная
Бит/(Пиксели*Кадры) : 0.084
Размер потока : 36,1 Мбайт (86%)

Аудио
Формат : AAC
Формат/Информация : Advanced Audio Codec
Профиль формата : LC
Идентификатор кодека : 10
Продолжительность : 5 м. 51 с.
Битрейт : 129 Кбит/сек
Каналы : 2 канала
Расположение каналов : Front: L R
Частота : 44,1 КГц
Метод сжатия : С потерями
Размер потока : 5,40 Мбайт (13%)

Общее
Полное имя : C:\Users\Borislav\Desktop\1\Bob Dylan - Liverpool 2001\13.FLV
Формат : Flash Video
Размер файла : 55,7 Мбайт
Продолжительность : 7 м. 1 с.
Общий поток : 1108 Кбит/сек
httphostheader : o-o.preferred.fra07t11.v3.cache1.c.youtube.com

Видео
Формат : AVC
Формат/Информация : Advanced Video Codec
Профиль формата : Main@L3.0
Параметр CABAC формата : Да
Параметр ReFrames формата : 3 кадра
Параметр GOP формата : M=1, N=25
Идентификатор кодека : 7
Продолжительность : 7 м. 1 с.
Битрейт : 971 Кбит/сек
Ширина : 854 пикселя
Высота : 480 пикселей
Соотношение сторон : 16:9
Режим частоты кадров : Постоянный
Частота кадров : 25,000 кадров/сек
Цветовое пространство : YUV
Субдискретизация насыщенности : 4:2:0
Битовая глубина : 8 бит
Тип развёртки : Прогрессивная
Бит/(Пиксели*Кадры) : 0.095
Размер потока : 48,8 Мбайт (88%)

Аудио
Формат : AAC
Формат/Информация : Advanced Audio Codec
Профиль формата : LC
Идентификатор кодека : 10
Продолжительность : 7 м. 1 с.
Битрейт : 129 Кбит/сек
Каналы : 2 канала
Расположение каналов : Front: L R
Частота : 44,1 КГц
Метод сжатия : С потерями
Размер потока : 6,46 Мбайт (12%)

Общее
Полное имя : C:\Users\Borislav\Desktop\1\Bob Dylan - Liverpool 2001\14.FLV
Формат : Flash Video
Размер файла : 36,5 Мбайт
Продолжительность : 5 м. 0 с.
Общий поток : 1019 Кбит/сек
httphostheader : o-o.preferred.fra07t11.v3.cache6.c.youtube.com

Видео
Формат : AVC
Формат/Информация : Advanced Video Codec
Профиль формата : Main@L3.0
Параметр CABAC формата : Да
Параметр ReFrames формата : 3 кадра
Параметр GOP формата : M=1, N=25
Идентификатор кодека : 7
Продолжительность : 5 м. 0 с.
Битрейт : 883 Кбит/сек
Ширина : 854 пикселя
Высота : 480 пикселей
Соотношение сторон : 16:9
Режим частоты кадров : Постоянный
Частота кадров : 25,000 кадров/сек
Цветовое пространство : YUV
Субдискретизация насыщенности : 4:2:0
Битовая глубина : 8 бит
Тип развёртки : Прогрессивная
Бит/(Пиксели*Кадры) : 0.086
Размер потока : 31,6 Мбайт (87%)

Аудио
Формат : AAC
Формат/Информация : Advanced Audio Codec
Профиль формата : LC
Идентификатор кодека : 10
Продолжительность : 5 м. 0 с.
Битрейт : 129 Кбит/сек
Каналы : 2 канала
Расположение каналов : Front: L R
Частота : 44,1 КГц
Метод сжатия : С потерями
Размер потока : 4,60 Мбайт (13%)

Общее
Полное имя : C:\Users\Borislav\Desktop\1\Bob Dylan - Liverpool 2001\15.FLV
Формат : Flash Video
Размер файла : 34,6 Мбайт
Продолжительность : 4 м. 26 с.
Общий поток : 1091 Кбит/сек
httphostheader : o-o.preferred.fra07t11.v3.cache5.c.youtube.com

Видео
Формат : AVC
Формат/Информация : Advanced Video Codec
Профиль формата : Main@L3.0
Параметр CABAC формата : Да
Параметр ReFrames формата : 3 кадра
Параметр GOP формата : M=1, N=25
Идентификатор кодека : 7
Продолжительность : 4 м. 26 с.
Битрейт : 954 Кбит/сек
Ширина : 854 пикселя
Высота : 480 пикселей
Соотношение сторон : 16:9
Режим частоты кадров : Постоянный
Частота кадров : 25,000 кадров/сек
Цветовое пространство : YUV
Субдискретизация насыщенности : 4:2:0
Битовая глубина : 8 бит
Тип развёртки : Прогрессивная
Бит/(Пиксели*Кадры) : 0.093
Размер потока : 30,3 Мбайт (87%)

Аудио
Формат : AAC
Формат/Информация : Advanced Audio Codec
Профиль формата : LC
Идентификатор кодека : 10
Продолжительность : 4 м. 26 с.
Битрейт : 129 Кбит/сек
Каналы : 2 канала
Расположение каналов : Front: L R
Частота : 44,1 КГц
Метод сжатия : С потерями
Размер потока : 4,09 Мбайт (12%)

Общее
Полное имя : C:\Users\Borislav\Desktop\1\Bob Dylan - Liverpool 2001\16.FLV
Формат : Flash Video
Размер файла : 36,4 Мбайт
Продолжительность : 5 м. 0 с.
Общий поток : 1017 Кбит/сек
httphostheader : o-o.preferred.fra07t11.v8.cache4.c.youtube.com

Видео
Формат : AVC
Формат/Информация : Advanced Video Codec
Профиль формата : Main@L3.0
Параметр CABAC формата : Да
Параметр ReFrames формата : 3 кадра
Параметр GOP формата : M=1, N=25
Идентификатор кодека : 7
Продолжительность : 5 м. 0 с.
Битрейт : 880 Кбит/сек
Ширина : 854 пикселя
Высота : 480 пикселей
Соотношение сторон : 16:9
Режим частоты кадров : Постоянный
Частота кадров : 25,000 кадров/сек
Цветовое пространство : YUV
Субдискретизация насыщенности : 4:2:0
Битовая глубина : 8 бит
Тип развёртки : Прогрессивная
Бит/(Пиксели*Кадры) : 0.086
Размер потока : 31,5 Мбайт (87%)

Аудио
Формат : AAC
Формат/Информация : Advanced Audio Codec
Профиль формата : LC
Идентификатор кодека : 10
Продолжительность : 5 м. 0 с.
Битрейт : 129 Кбит/сек
Каналы : 2 канала
Расположение каналов : Front: L R
Частота : 44,1 КГц
Метод сжатия : С потерями
Размер потока : 4,61 Мбайт (13%)

Общее
Полное имя : C:\Users\Borislav\Desktop\1\Bob Dylan - Liverpool 2001\17.FLV
Формат : Flash Video
Размер файла : 54,1 Мбайт
Продолжительность : 5 м. 52 с.
Общий поток : 1286 Кбит/сек
httphostheader : o-o.preferred.fra07t11.v4.cache8.c.youtube.com

Видео
Формат : AVC
Формат/Информация : Advanced Video Codec
Профиль формата : Main@L3.0
Параметр CABAC формата : Да
Параметр ReFrames формата : 3 кадра
Идентификатор кодека : 7
Продолжительность : 5 м. 52 с.
Битрейт : 1150 Кбит/сек
Ширина : 854 пикселя
Высота : 480 пикселей
Соотношение сторон : 16:9
Режим частоты кадров : Постоянный
Частота кадров : 25,000 кадров/сек
Цветовое пространство : YUV
Субдискретизация насыщенности : 4:2:0
Битовая глубина : 8 бит
Тип развёртки : Прогрессивная
Бит/(Пиксели*Кадры) : 0.112
Размер потока : 48,4 Мбайт (89%)

Аудио
Формат : AAC
Формат/Информация : Advanced Audio Codec
Профиль формата : LC
Идентификатор кодека : 10
Продолжительность : 5 м. 52 с.
Битрейт : 129 Кбит/сек
Каналы : 2 канала
Расположение каналов : Front: L R
Частота : 44,1 КГц
Метод сжатия : С потерями
Размер потока : 5,41 Мбайт (10%)

Общее
Полное имя : C:\Users\Borislav\Desktop\1\Bob Dylan - Liverpool 2001\18.FLV
Формат : Flash Video
Размер файла : 111 Мбайт
Продолжительность : 12 м.
Общий поток : 1242 Кбит/сек
httphostheader : o-o.preferred.svo01s01.v18.lscache3.c.youtube.com

Видео
Формат : AVC
Формат/Информация : Advanced Video Codec
Профиль формата : Main@L3.0
Параметр CABAC формата : Да
Параметр ReFrames формата : 3 кадра
Параметр GOP формата : M=1, N=25
Идентификатор кодека : 7
Продолжительность : 12 м.
Битрейт : 1105 Кбит/сек
Ширина : 854 пикселя
Высота : 480 пикселей
Соотношение сторон : 16:9
Режим частоты кадров : Постоянный
Частота кадров : 25,000 кадров/сек
Цветовое пространство : YUV
Субдискретизация насыщенности : 4:2:0
Битовая глубина : 8 бит
Тип развёртки : Прогрессивная
Бит/(Пиксели*Кадры) : 0.108
Размер потока : 99,0 Мбайт (89%)

Аудио
Формат : AAC
Формат/Информация : Advanced Audio Codec
Профиль формата : LC
Идентификатор кодека : 10
Продолжительность : 12 м.
Битрейт : 129 Кбит/сек
Каналы : 2 канала
Расположение каналов : Front: L R
Частота : 44,1 КГц
Метод сжатия : С потерями
Размер потока : 11,5 Мбайт (10%)

Общее
Полное имя : C:\Users\Borislav\Desktop\1\Bob Dylan - Liverpool 2001\2.FLV
Формат : Flash Video
Размер файла : 54,0 Мбайт
Продолжительность : 8 м. 14 с.
Общий поток : 916 Кбит/сек
httphostheader : o-o.preferred.fra07t11.v2.cache4.c.youtube.com

Видео
Формат : AVC
Формат/Информация : Advanced Video Codec
Профиль формата : Main@L3.0
Параметр CABAC формата : Да
Параметр ReFrames формата : 3 кадра
Параметр GOP формата : M=1, N=25
Идентификатор кодека : 7
Продолжительность : 8 м. 14 с.
Битрейт : 779 Кбит/сек
Ширина : 854 пикселя
Высота : 480 пикселей
Соотношение сторон : 16:9
Режим частоты кадров : Постоянный
Частота кадров : 25,000 кадров/сек
Цветовое пространство : YUV
Субдискретизация насыщенности : 4:2:0
Битовая глубина : 8 бит
Тип развёртки : Прогрессивная
Бит/(Пиксели*Кадры) : 0.076
Размер потока : 45,9 Мбайт (85%)

Аудио
Формат : AAC
Формат/Информация : Advanced Audio Codec
Профиль формата : LC
Идентификатор кодека : 10
Продолжительность : 8 м. 14 с.
Битрейт : 129 Кбит/сек
Каналы : 2 канала
Расположение каналов : Front: L R
Частота : 44,1 КГц
Метод сжатия : С потерями
Размер потока : 7,58 Мбайт (14%)

Общее
Полное имя : C:\Users\Borislav\Desktop\1\Bob Dylan - Liverpool 2001\3.FLV
Формат : Flash Video
Размер файла : 85,0 Мбайт
Продолжительность : 13 м.
Общий поток : 870 Кбит/сек
httphostheader : o-o.preferred.fra07t11.v4.cache8.c.youtube.com

Видео
Формат : AVC
Формат/Информация : Advanced Video Codec
Профиль формата : Main@L3.0
Параметр CABAC формата : Да
Параметр ReFrames формата : 3 кадра
Параметр GOP формата : M=1, N=25
Идентификатор кодека : 7
Продолжительность : 13 м.
Битрейт : 733 Кбит/сек
Ширина : 854 пикселя
Высота : 480 пикселей
Соотношение сторон : 16:9
Режим частоты кадров : Постоянный
Частота кадров : 25,000 кадров/сек
Цветовое пространство : YUV
Субдискретизация насыщенности : 4:2:0
Битовая глубина : 8 бит
Тип развёртки : Прогрессивная
Бит/(Пиксели*Кадры) : 0.072
Размер потока : 71,7 Мбайт (84%)

Аудио
Формат : AAC
Формат/Информация : Advanced Audio Codec
Профиль формата : LC
Идентификатор кодека : 10
Продолжительность : 13 м.
Битрейт : 129 Кбит/сек
Каналы : 2 канала
Расположение каналов : Front: L R
Частота : 44,1 КГц
Метод сжатия : С потерями
Размер потока : 12,6 Мбайт (15%)

Общее
Полное имя : C:\Users\Borislav\Desktop\1\Bob Dylan - Liverpool 2001\4.FLV
Формат : Flash Video
Размер файла : 55,7 Мбайт
Продолжительность : 6 м. 28 с.
Общий поток : 1203 Кбит/сек
httphostheader : o-o.preferred.fra07t11.v1.cache2.c.youtube.com

Видео
Формат : AVC
Формат/Информация : Advanced Video Codec
Профиль формата : Main@L3.0
Параметр CABAC формата : Да
Параметр ReFrames формата : 3 кадра
Параметр GOP формата : M=1, N=25
Идентификатор кодека : 7
Продолжительность : 6 м. 28 с.
Битрейт : 1066 Кбит/сек
Ширина : 854 пикселя
Высота : 480 пикселей
Соотношение сторон : 16:9
Режим частоты кадров : Постоянный
Частота кадров : 25,000 кадров/сек
Цветовое пространство : YUV
Субдискретизация насыщенности : 4:2:0
Битовая глубина : 8 бит
Тип развёртки : Прогрессивная
Бит/(Пиксели*Кадры) : 0.104
Размер потока : 49,4 Мбайт (89%)

Аудио
Формат : AAC
Формат/Информация : Advanced Audio Codec
Профиль формата : LC
Идентификатор кодека : 10
Продолжительность : 6 м. 28 с.
Битрейт : 129 Кбит/сек
Каналы : 2 канала
Расположение каналов : Front: L R
Частота : 44,1 КГц
Метод сжатия : С потерями
Размер потока : 5,96 Мбайт (11%)

Общее
Полное имя : C:\Users\Borislav\Desktop\1\Bob Dylan - Liverpool 2001\5.FLV
Формат : Flash Video
Размер файла : 67,2 Мбайт
Продолжительность : 7 м. 58 с.
Общий поток : 1179 Кбит/сек
httphostheader : o-o.preferred.fra07t11.v1.cache1.c.youtube.com

Видео
Формат : AVC
Формат/Информация : Advanced Video Codec
Профиль формата : Main@L3.0
Параметр CABAC формата : Да
Параметр ReFrames формата : 3 кадра
Параметр GOP формата : M=1, N=25
Идентификатор кодека : 7
Продолжительность : 7 м. 58 с.
Битрейт : 1042 Кбит/сек
Ширина : 854 пикселя
Высота : 480 пикселей
Соотношение сторон : 16:9
Режим частоты кадров : Постоянный
Частота кадров : 25,000 кадров/сек
Цветовое пространство : YUV
Субдискретизация насыщенности : 4:2:0
Битовая глубина : 8 бит
Тип развёртки : Прогрессивная
Бит/(Пиксели*Кадры) : 0.102
Размер потока : 59,4 Мбайт (88%)

Аудио
Формат : AAC
Формат/Информация : Advanced Audio Codec
Профиль формата : LC
Идентификатор кодека : 10
Продолжительность : 7 м. 58 с.
Битрейт : 129 Кбит/сек
Каналы : 2 канала
Расположение каналов : Front: L R
Частота : 44,1 КГц
Метод сжатия : С потерями
Размер потока : 7,34 Мбайт (11%)

Общее
Полное имя : C:\Users\Borislav\Desktop\1\Bob Dylan - Liverpool 2001\6.FLV
Формат : Flash Video
Размер файла : 30,2 Мбайт
Продолжительность : 3 м. 59 с.
Общий поток : 1059 Кбит/сек
httphostheader : o-o.preferred.fra07t11.v8.cache4.c.youtube.com

Видео
Формат : AVC
Формат/Информация : Advanced Video Codec
Профиль формата : Main@L3.0
Параметр CABAC формата : Да
Параметр ReFrames формата : 3 кадра
Идентификатор кодека : 7
Продолжительность : 3 м. 59 с.
Битрейт : 922 Кбит/сек
Ширина : 854 пикселя
Высота : 480 пикселей
Соотношение сторон : 16:9
Режим частоты кадров : Постоянный
Частота кадров : 25,000 кадров/сек
Цветовое пространство : YUV
Субдискретизация насыщенности : 4:2:0
Битовая глубина : 8 бит
Тип развёртки : Прогрессивная
Бит/(Пиксели*Кадры) : 0.090
Размер потока : 26,3 Мбайт (87%)

Аудио
Формат : AAC
Формат/Информация : Advanced Audio Codec
Профиль формата : LC
Идентификатор кодека : 10
Продолжительность : 3 м. 59 с.
Битрейт : 129 Кбит/сек
Каналы : 2 канала
Расположение каналов : Front: L R
Частота : 44,1 КГц
Метод сжатия : С потерями
Размер потока : 3,67 Мбайт (12%)

Общее
Полное имя : C:\Users\Borislav\Desktop\1\Bob Dylan - Liverpool 2001\7.FLV
Формат : Flash Video
Размер файла : 33,0 Мбайт
Продолжительность : 6 м. 42 с.
Общий поток : 689 Кбит/сек
httphostheader : o-o.preferred.fra07t11.v1.cache7.c.youtube.com

Видео
Формат : AVC
Формат/Информация : Advanced Video Codec
Профиль формата : Main@L3.0
Параметр CABAC формата : Да
Параметр ReFrames формата : 3 кадра
Идентификатор кодека : 7
Продолжительность : 6 м. 42 с.
Битрейт : 552 Кбит/сек
Ширина : 854 пикселя
Высота : 480 пикселей
Соотношение сторон : 16:9
Режим частоты кадров : Постоянный
Частота кадров : 25,000 кадров/сек
Цветовое пространство : YUV
Субдискретизация насыщенности : 4:2:0
Битовая глубина : 8 бит
Тип развёртки : Прогрессивная
Бит/(Пиксели*Кадры) : 0.054
Размер потока : 26,5 Мбайт (80%)

Аудио
Формат : AAC
Формат/Информация : Advanced Audio Codec
Профиль формата : LC
Идентификатор кодека : 10
Продолжительность : 6 м. 42 с.
Битрейт : 129 Кбит/сек
Каналы : 2 канала
Расположение каналов : Front: L R
Частота : 44,1 КГц
Метод сжатия : С потерями
Размер потока : 6,17 Мбайт (19%)

Общее
Полное имя : C:\Users\Borislav\Desktop\1\Bob Dylan - Liverpool 2001\8.FLV
Формат : Flash Video
Размер файла : 69,0 Мбайт
Продолжительность : 8 м. 0 с.
Общий поток : 1205 Кбит/сек
httphostheader : o-o.preferred.fra07t11.v4.cache8.c.youtube.com

Видео
Формат : AVC
Формат/Информация : Advanced Video Codec
Профиль формата : Main@L3.0
Параметр CABAC формата : Да
Параметр ReFrames формата : 3 кадра
Параметр GOP формата : M=1, N=25
Идентификатор кодека : 7
Продолжительность : 8 м. 0 с.
Битрейт : 1068 Кбит/сек
Ширина : 854 пикселя
Высота : 480 пикселей
Соотношение сторон : 16:9
Режим частоты кадров : Постоянный
Частота кадров : 25,000 кадров/сек
Цветовое пространство : YUV
Субдискретизация насыщенности : 4:2:0
Битовая глубина : 8 бит
Тип развёртки : Прогрессивная
Бит/(Пиксели*Кадры) : 0.104
Размер потока : 61,2 Мбайт (89%)

Аудио
Формат : AAC
Формат/Информация : Advanced Audio Codec
Профиль формата : LC
Идентификатор кодека : 10
Продолжительность : 8 м. 0 с.
Битрейт : 129 Кбит/сек
Каналы : 2 канала
Расположение каналов : Front: L R
Частота : 44,1 КГц
Метод сжатия : С потерями
Размер потока : 7,37 Мбайт (11%)

Общее
Полное имя : C:\Users\Borislav\Desktop\1\Bob Dylan - Liverpool 2001\9.FLV
Формат : Flash Video
Размер файла : 41,4 Мбайт
Продолжительность : 6 м. 39 с.
Общий поток : 868 Кбит/сек
httphostheader : tc.v14.cache5.c.youtube.com

Видео
Формат : AVC
Формат/Информация : Advanced Video Codec
Профиль формата : Main@L3.0
Параметр CABAC формата : Да
Параметр ReFrames формата : 3 кадра
Идентификатор кодека : 7
Продолжительность : 6 м. 39 с.
Битрейт : 731 Кбит/сек
Ширина : 854 пикселя
Высота : 480 пикселей
Соотношение сторон : 16:9
Режим частоты кадров : Постоянный
Частота кадров : 25,000 кадров/сек
Цветовое пространство : YUV
Субдискретизация насыщенности : 4:2:0
Битовая глубина : 8 бит
Тип развёртки : Прогрессивная
Бит/(Пиксели*Кадры) : 0.071
Размер потока : 34,8 Мбайт (84%)

Аудио
Формат : AAC
Формат/Информация : Advanced Audio Codec
Профиль формата : LC
Идентификатор кодека : 10
Продолжительность : 6 м. 39 с.
Битрейт : 129 Кбит/сек
Каналы : 2 канала
Расположение каналов : Front: L R
Частота : 44,1 КГц
Метод сжатия : С потерями
Размер потока : 6,13 Мбайт (15%)


Время раздачи: c 12:00 до 00:00
[NNM-Club.ru]_Bob Dylan - Liverpool 2001.torrent
 Торрент: Золотая раздача  Зарегистрирован
 
Зарегистрируйтесь и скачайте торрент!
19,6 KB

 Зарегистрирован:   12 Июн 2012 16:09:50
 Размер:   939 MB  (
 Рейтинг:    (Голосов: 5)
 Поблагодарили:   22
 Проверка:   Оформление проверено модератором 15 Июн 2012 10:26:33
Как cкачать  ·  Как раздать  ·  Правильно оформить  ·  Поднять ратио!  
Топик был перенесен из форума Концерты (DVD) в форум Архив Видео


Garryson
Топик был перенесен из форума Архив Видео в форум Архив Музыкального Видео


Lelya_K
Показать сообщения:   
Начать новую тему   Ответить на тему    Торрент-трекер NNM-Club -> Архив торрентов -> Архив Музыкального Видео Часовой пояс: GMT + 3
Страница 1 из 1