Классический форум-трекер
canvas not supported
Нас вместе: 4 079 115

Олег Пахомов - Попурри (2006) DVDRip


 
 
RSS
Начать новую тему   Ответить на тему    Торрент-трекер NNM-Club -> Архив торрентов -> Архив Музыкального Видео
Автор Сообщение
ab5144 ®
Стаж: 8 лет 6 мес.
Сообщений: 2693
Ratio: 101,287
Поблагодарили: 263911
100%
Олег Пахомов - Попурри (2006) DVDRip
Русское название: Олег Пахомов - Попурри
Год выпуска: 2006
Жанр: Музыка

Описание фильма:
Олег Пахомов - Попурри

Продолжительность: 00:04:37

Видеокодек: Xvid
Битрейт видео: ~1377 kbps avg, 0.543 bit/pixel
Размер кадра: 352x288 (1,222), 25,0 fps
Качество видео: DVDRip
Аудиокодек: MP3, 2 ch
Битрейт аудио: 128.00 kbps avg, 44,1 kHz
Код:
Общее
Полное имя                               : Popurri.avi
Формат                                   : AVI
Формат/Информация                        : Audio Video Interleave
Размер файла                             : 50,0 Мбайт
Продолжительность                        : 4 м. 37 с.
Общий поток                              : 1513 Кбит/сек
Программа кодирования                    : VirtualDubMod 1.5.4.1 (build 2178/release)
Библиотека кодирования                   : VirtualDubMod build 2178/release

Видео
Идентификатор                            : 0
Формат                                   : MPEG-4 Visual
Профиль формата                          : Advanced Simple@L5
Параметр BVOP формата                    : 1
Параметр QPel формата                    : Нет
Параметр GMC формата                     : Без точки перехода
Параметр матрицы формата                 : Выборочная
Идентификатор кодека                     : XVID
Идентификатор кодека/Подсказка           : XviD
Продолжительность                        : 4 м. 37 с.
Битрейт                                  : 1377 Кбит/сек
Ширина                                   : 352 пикселя
Высота                                   : 288 пикселей
Соотношение сторон                       : 1,222
Частота кадров                           : 25,000 кадров/сек
Стандарт вещания                         : PAL
Цветовое пространство                    : YUV
Субдискретизация насыщенности            : 4:2:0
Битовая глубина                          : 8 бит
Тип развёртки                            : Прогрессивная
Метод сжатия                             : С потерями
Бит/(Пиксели*Кадры)                      : 0.543
Размер потока                            : 45,5 Мбайт (91%)
Библиотека кодирования                   : XviD 1.1.0 Beta2 (UTC 2005-04-04)

Аудио
Идентификатор                            : 1
Формат                                   : MPEG Audio
Версия формата                           : Version 1
Профиль формата                          : Layer 3
Режим                                    : Joint stereo
Расширение режима                        : MS Stereo
Идентификатор кодека                     : 55
Идентификатор кодека/Подсказка           : MP3
Продолжительность                        : 4 м. 37 с.
Вид битрейта                             : Постоянный
Битрейт                                  : 128 Кбит/сек
Каналы                                   : 2 канала
Частота                                  : 44,1 КГц
Метод сжатия                             : С потерями
Размер потока                            : 4,23 Мбайт (8%)
Выравнивание                             : Разделение по промежуткам
Продолжительность промежутка             : 80  мс. (2,00 видеокадра)
Время предзагрузки промежутка            : 500  мс.
Библиотека кодирования                   : LAME3.96r
Настройки программы                      : -m j -V 4 -q 2 -lowpass 17.5 -b 128
Скриншоты:


Время раздачи: 24/7 до 5 скачавших
[NNM-Club.ru]_Popurri.avi.torrent
 Торрент: Платиновая раздача  Зарегистрирован
 
Скачать


Примагнититься
 Зарегистрирован:   27 Ноя 2012 19:22:44
 Размер:   50 MB  (
 Рейтинг:   3,3 (Голосов: 10)
 Поблагодарили:   21
 Проверка:   Оформление проверено модератором 28 Ноя 2012 01:11:48
Как cкачать  ·  Как раздать  ·  Правильно оформить  ·  Поднять ратио!  
Загрузка...
юрчил
Стаж: 8 лет 6 мес.
Сообщений: 650
Ratio: 0,574
Раздал: 388 GB
100%
Откуда: кемерово
russia.gif
СПАСИБО.

_________________
Спасибо всей команде nnm-club
Топик был перенесен из форума Музыкальные клипы в форум Архив Музыкального Видео

Причина переноса: Раздающего не было более месяца.
Robert Ingil
Показать сообщения:   
Начать новую тему   Ответить на тему    Торрент-трекер NNM-Club -> Архив торрентов -> Архив Музыкального Видео Часовой пояс: GMT + 3
Страница 1 из 1