Классический форум-трекер
canvas not supported
Нас вместе: 4 079 489

Бит Клуб / Beat Club - 40th Anniversary Edition(vol.1) (2009) VHSRip


 
 
RSS
Начать новую тему   Ответить на тему    Торрент-трекер NNM-Club -> Архив торрентов -> Архив Музыкального Видео
Автор Сообщение
terras50 ®
RG Releasers
 
Стаж: 7 лет 7 мес.
Сообщений: 5637
Ratio: 76,858
Поблагодарили: 246613
100%
Откуда: Вильнюс. Литва
lithuania.gif
Бит Клуб / Beat Club - 40th Anniversary Edition(vol.1) (2009) VHSRip

Русское название: Бит Клуб
Оригинальное название: Beat Club - 40th Anniversary Edition(vol.1)
Год выпуска: 2009
Жанр: Музыка,Rock
Продолжительность: 01:30:20

Видеокодек: DivX 3
Битрейт видео: ~576x432 (1.33:1), 25 fps, DivX Codec 5.x or 6.x ~1509 kbps avg, 0.24 bit/pixel
Размер кадра: 576x432
Качество видео: VHSRip
Аудиокодек: MP3
Битрейт аудио: 48 kHz, MPEG Layer 3, 2 ch, ~192.00 kbps avg

Описание фильма:
Подборка выступлений разных исполнителей в программе Beat Club (vol/1)
(видео ч/б.)
(vol.2) - тут- http://nnmclub.to/forum/viewtopic.php?p=4882991#4882991

Треклист:

01.The Herd- Paradise Lost (1968)
02.Dave Davis - Susannah's Still (1968)
03.Nirvana - Pentehost Hotel (1968)
04.The Amen Corner - Bend Me Shape Me (1968)
05.Traffic - Here We Go Round The Mulberry Bush (1968)
06.Manfred Mann - Mighty Quinn (1968)
07.Procol Harum - Quite Rightly So (1968)
08.The Hollies - Jennifer Eccles (1968)
09.The Herd - I Don't Want Our Loving To Die (1968)
10.Manfred Mann - My Name Is Jack (1968)
11.The Small Faces - Lazy Sunday (1968)
12.The Equals - Baby Come Back (1968)
13.Cupid's Inspiration - Yesterday Has Gone (1968)
14.The Crazy World Of Arthur Brown - Fire (1968)
15.Dave Dee & Co - Last Night (1968)
16.The Who - Magic Bus (1968)
17.The Easybeats - Good Times (1968)
18.The Spooky Tooth - The Weight (1968)
19.Blue Cheer - Summertime Blues (1968)
20.Barry Ryan - Enclose (1968) (Inc. In Beat-Club '69)
21.Simon Dupree & The Big Sound - Thinking About My Life (1968)
22.Tiny Tim - Top-Toe Thru' The Tulips With Me (1968)
23.The Bonzo Dog Doo Dah Band - I'm The Urban Spaceman (1968) (Inc. In Beat-Club '69)
24.Manfred Mann - Fox On The Run (1968)
25.Joe Cocker - With A Little Help From My Friends (1968) (Inc. In Beat-Club '69)
26.The Marmalade - Ob-La-Di Ob-La-Da (1968)
27.The Beach Boys - Bluebirds Over The Mountains (1968)
28.The Flirtations - Nothing But A Heartache (1968)
29.The Cream - Strange Brew (1967) (Inc. In Beat-Club '67)
30.The Kinks - Waterloo Sunset (1967)

Общее
Полное имя : D:\Archyv\Concert\Beat club - 40th anniversary edition (Disk1).avi
Формат : AVI
Формат/Информация : Audio Video Interleave
Профиль формата : OpenDML
Размер файла : 1,08 Гбайт
Продолжительность : 1 ч. 30 м.
Общий поток : 1709 Кбит/сек
Программа кодирования : Lavf51.12.1

Видео
Идентификатор : 0
Формат : MPEG-4 Visual
Профиль формата : Simple@L1
Параметр BVOP формата : Нет
Параметр QPel формата : Нет
Параметр GMC формата : Без точки перехода
Параметр матрицы формата : Default (H.263)
Идентификатор кодека : DX50
Идентификатор кодека/Подсказка : DivX 5
Продолжительность : 1 ч. 30 м.
Битрейт : 1500 Кбит/сек
Ширина : 576 пикселей
Высота : 432 пикселя
Соотношение сторон : 4:3
Частота кадров : 25,000 кадров/сек
Цветовое пространство : YUV
Субдискретизация насыщенности : 4:2:0
Битовая глубина : 8 бит
Тип развёртки : Прогрессивная
Метод сжатия : С потерями
Бит/(Пиксели*Кадры) : 0.241
Размер потока : 969 Мбайт (88%)
Библиотека кодирования : Lavc51.40.4

Аудио
Идентификатор : 1
Формат : MPEG Audio
Версия формата : Version 1
Профиль формата : Layer 3
Режим : Joint stereo
Расширение режима : MS Stereo
Идентификатор кодека : 55
Идентификатор кодека/Подсказка : MP3
Продолжительность : 1 ч. 30 м.
Вид битрейта : Постоянный
Битрейт : 192 Кбит/сек
Каналы : 2 канала
Частота : 48,0 КГц
Метод сжатия : С потерями
Размер потока : 124 Мбайт (11%)
Выравнивание : Соединение по промежуткам
Продолжительность промежутка : 24 мс. (0,60 видеокадр)
Скриншоты:


Время раздачи: с 6:00 до 22:00 (GMT +2)
[NNM-Club.ru]_Beat club - 40th anniversary edition (Disk1).avi.torrent
 Торрент: Золотая раздача  Зарегистрирован
 
Зарегистрируйтесь и скачайте торрент!
11,1 KB

Примагнититься
 Зарегистрирован:   08 Окт 2012 12:13:03
 Размер:   1,08 GB  (
 Рейтинг:    (Голосов: 4)
 Поблагодарили:   8
 Проверка:   Оформление проверено модератором 08 Окт 2012 13:30:42
Как cкачать  ·  Как раздать  ·  Правильно оформить  ·  Поднять ратио!  

_________________
У всех людей своя музыка. Иногда я вижу человека, а от него музыка звучит. Какой человек — такая и музыка.
vistarr
Стаж: 9 лет 8 мес.
Сообщений: 48
Ratio: 2,532
100%
<sarcasm>А почему название в заголовке не совпадает с названием на картинке альбома?</sarcasm>
На картинке: 403 Forbidden ;)
Топик был перенесен из форума Музыкальные клипы в форум Архив Музыкального Видео

Причина переноса: Раздающего не было более месяца.
Robert Ingil
Показать сообщения:   
Начать новую тему   Ответить на тему    Торрент-трекер NNM-Club -> Архив торрентов -> Архив Музыкального Видео Часовой пояс: GMT + 3
Страница 1 из 1