Классический форум-трекер
canvas not supported
Нас вместе: 4 077 852

Froidz - Domino (2012) [H.264/720р] WEBRip


 
 
RSS
Начать новую тему   Ответить на тему    Торрент-трекер NNM-Club -> Архив торрентов -> Архив Музыкального Видео
Автор Сообщение
FedExe ®
Uploader 300+
Стаж: 9 лет 3 мес.
Сообщений: 9667
Ratio: 380,88
Поблагодарили: 926035
100%
Откуда: LoX - living off experien
Froidz - Domino (2012)
Год выхода : 2012
Исполнитель : Froidz
Название : Domino
Продолжительность : 00:03:59
Жанр : Dance

Видеокодек: MPEG4 Video (AVC)
Битрейт видео: 2 004 Kbps
Размер кадра: 1280x720
Качество видео: WEBRip
Аудиокодек: AAC
Битрейт аудио: 149 Kbps 2 channels
Код:
General

Format                           : MPEG-4
Format profile                   : Base Media / Version 2
Codec ID                         : mp42
File size                        : 61.6 MiB
Duration                         : 3mn 59s
Overall bit rate                 : 2 156 Kbps
Encoded date                     : UTC 2012-03-20 17:41:03
Tagged date                      : UTC 2012-03-20 17:41:03
gsst                             : 0
gstd                             : 239583
gssd                             : BADC212C3HH1332437001783362
gshh                             : o-o.preferred.fra02s07.v3.lscache2.c.youtube.com

Video
ID                               : 1
Format                           : AVC
Format/Info                      : Advanced Video Codec
Format profile                   : High@L3.1
Format settings, CABAC           : Yes
Format settings, ReFrames        : 1 frame
Format settings, GOP             : M=1, N=60
Codec ID                         : avc1
Codec ID/Info                    : Advanced Video Coding
Duration                         : 3mn 59s
Bit rate mode                    : Variable
Bit rate                         : 2 004 Kbps
Maximum bit rate                 : 3 747 Kbps
Width                            : 1 280 pixels
Height                           : 720 pixels
Display aspect ratio             : 16:9
Frame rate mode                  : Constant
Frame rate                       : 25.000 fps
Color space                      : YUV
Chroma subsampling               : 4:2:0
Bit depth                        : 8 bits
Scan type                        : Progressive
Bits/(Pixel*Frame)               : 0.087
Stream size                      : 57.2 MiB (93%)
Tagged date                      : UTC 2012-03-20 17:41:03

Audio
ID                               : 2
Format                           : AAC
Format/Info                      : Advanced Audio Codec
Format profile                   : LC
Codec ID                         : 40
Duration                         : 3mn 59s
Bit rate mode                    : Variable
Bit rate                         : 149 Kbps
Maximum bit rate                 : 193 Kbps
Channel(s)                       : 2 channels
Channel positions                : Front: L R
Sampling rate                    : 44.1 KHz
Compression mode                 : Lossy
Stream size                      : 4.26 MiB (7%)
Title                            : IsoMedia File Produced by Google, 5-11-2011
Encoded date                     : UTC 2012-03-20 17:41:03
Tagged date                      : UTC 2012-03-20 17:41:03


Скриншоты:



Время раздачи 24/7


[NNM-Club.ru]_Froidz_-_Domino_HD.mp4.torrent
 Торрент: Золотая раздача  Зарегистрирован
 
Зарегистрируйтесь и скачайте торрент!
19,5 KB

Примагнититься
 Зарегистрирован:   23 Мар 2012 00:48:03
 Размер:   61,6 MB  (
 Рейтинг:    (Голосов: 7)
 Поблагодарили:   18
 Проверка:   Оформление проверено модератором 23 Мар 2012 10:54:05
Как cкачать  ·  Как раздать  ·  Правильно оформить  ·  Поднять ратио!  

_________________

Ну и конечно, данный материал выложен исключительно для ознакомления. После просмотра Вы обязаны удалить все файлы, отформатировать жесткий диск, разбить его молотком, облить кислотой и сжечь остатки в микроволновке.
attaha
Стаж: 9 лет 9 мес.
Сообщений: 202
Ratio: 3,254
100%
Откуда: Irbene
latvia.gif
....соскочившие с рисовой диеты азиатки ,распухают в европе и не будучи грациозными отроду еще более становятся отвратительны на сцене...
Топик был перенесен из форума Музыкальные клипы в форум Архив Музыкального Видео

Причина переноса: Раздающего не было более месяца.
Robert Ingil
Показать сообщения:   
Начать новую тему   Ответить на тему    Торрент-трекер NNM-Club -> Архив торрентов -> Архив Музыкального Видео Часовой пояс: GMT + 3
Страница 1 из 1