Классический форум-трекер
canvas not supported
Нас вместе: 4 078 030

Протоиерей Олег Стеняев | Мытарства души [2011] DVDRip


 
 
RSS
Начать новую тему   Ответить на тему    Торрент-трекер NNM-Club -> Религии и культы -> Религиозное видео
Автор Сообщение
Chernobyl ®
Стаж: 8 лет
Сообщений: 919
Ratio: 124,97
Раздал: 42,53 TB
Поблагодарили: 40141
100%
nnm-club.gif
Протоиерей Олег Стеняев | Мытарства души [2011] DVDRip
Автор (режиссер): Протоиерей Олег Стеняев
Название: Мытарства души
Год выпуска: 2011
Жанр: Лекция
Качество видео: DVDRip
Продолжительность: 01:54:04
Видеокодек: Xvid
Битрейт видео: ~1800 Кбит/сек
Размер кадра: 720x574@765x574
Аудиокодек: MP3
Битрейт аудио: 128 Кбит/сек

Описание:
Знания о мытарствах - это образы, переданные нам святыми отцами Церкви и усвоенные нашими благочестивыми предками. Сохранить представления о загробной участи человека и передать их другим - прямая обязанность христианина. В беседе о мытарствах священник Олег Стеняев подробно излагает последовательность испытаний души человека бесовскими князьями. Беседы помогут христианам в подготовке к Таинству Исповеди.
Общее
Полное имя : D:\Православные фильмы и музыка\Фильмы\последние\мытарства души 2011\Протоиерей Олег Стеняев Мытарства души (2011).avi
Формат : AVI
Формат/Информация : Audio Video Interleave
Профиль формата : OpenDML
Размер файла : 1,51 Гбайт
Продолжительность : 1 ч. 51 м.
Общий поток : 1941 Кбит/сек
Программа кодирования : Lavf54.63.100

Видео
Идентификатор : 0
Формат : MPEG-4 Visual
Профиль формата : Simple@L3
Параметр BVOP формата : Нет
Параметр QPel формата : Нет
Параметр GMC формата : Без точки перехода
Параметр матрицы формата : Default (H.263)
Идентификатор кодека : XVID
Идентификатор кодека/Подсказка : XviD
Продолжительность : 1 ч. 51 м.
Битрейт : 1800 Кбит/сек
Ширина : 720 пикселей
Высота : 574 пикселя
Соотношение сторон : 4:3
Частота кадров : 25,000 кадров/сек
Цветовое пространство : YUV
Субдискретизация насыщенности : 4:2:0
Битовая глубина : 8 бит
Тип развёртки : Прогрессивная
Метод сжатия : С потерями
Бит/(Пиксели*Кадры) : 0.174
Размер потока : 1,40 Гбайт (93%)
Библиотека кодирования : XviD 64

Аудио
Идентификатор : 1
Формат : MPEG Audio
Версия формата : Version 1
Профиль формата : Layer 3
Идентификатор кодека : 55
Идентификатор кодека/Подсказка : MP3
Продолжительность : 1 ч. 51 м.
Вид битрейта : Постоянный
Битрейт : 128 Кбит/сек
Каналы : 2 канала
Частота : 44,1 КГц
Метод сжатия : С потерями
Размер потока : 102 Мбайт (7%)
Выравнивание : Соединение по промежуткам
Продолжительность промежутка : 26 мс. (0,65 видеокадр)
Время предзагрузки промежутка : 26 мс.
Библиотека кодирования : LAME3.99.5
Скриншоты:



Протоиерей Олег Стеняев на NNM Club


Время раздачи: С 23:00 до 19:00 (по московскому времени)
[NNM-Club.ru]_Protoierey Oleg Stenyaev Myitarstva dushi (2011).avi.torrent
 Торрент: Платиновая раздача  Зарегистрирован
 
Скачать


Примагнититься
 Зарегистрирован:   20 Апр 2013 23:48:37
 Размер:   1,51 GB  (
 Рейтинг:   4,2 (Голосов: 27)
 Поблагодарили:   83
 Проверка:   Оформление проверено модератором 21 Апр 2013 00:23:24
Если можете положите копеечку. Деньги пойду на оплату сидбокса. Яндекс деньги: 410014704467395
Как cкачать  ·  Как раздать  ·  Правильно оформить  ·  Поднять ратио!  
Chernobyl ®
Стаж: 8 лет
Сообщений: 919
Ratio: 124,97
Раздал: 42,53 TB
Поблагодарили: 40141
100%
nnm-club.gif

Посмертные мытарства души и Страшный суд Божий [2000] [PDF]
Протоиерей Олег Стеняев | Мытарства души [2011] DVD5
Mahnamar
Стаж: 7 лет 11 мес.
Сообщений: 398
Ratio: 1,843
100%
witch.png
Вера делает нас людьми. Благодарю.
Показать сообщения:   
Начать новую тему   Ответить на тему    Торрент-трекер NNM-Club -> Религии и культы -> Религиозное видео Часовой пояс: GMT + 3
Страница 1 из 1