Классический форум-трекер
canvas not supported
Нас вместе: 4 079 046

Pataliro Saiyuki! / Паталиро Сайюки [2005, TV, 26 из 26] DVDVRip 480p hs


 
 
RSS
Начать новую тему   Ответить на тему    Торрент-трекер NNM-Club -> Аниме разное -> Аниме хардсаб
Автор Сообщение
gdfhs6t6we ®
Стаж: 8 лет 5 мес.
Сообщений: 675
Ratio: 780,298
Поблагодарили: 12232
100%
albania.gif
パタリロ西遊記! / Pataliro Saiyuki! / Паталиро Сайюки

Жанр: Комедия, сёдзё
Тип: TV-сериал
Продолжительность: 26 эп., 10 мин.
Дата премьеры / период выхода: c 07.06.2005 по 29.11.2005
Режиссер: Маэдзима Кэнъити
Автор оригинала: Мая Минэо
Производство/студия:

Качество видео: DVDVRip
Видео: MPEG-4, 640x480, 23,976 кадра/сек, ~1113 кбит/с
Аудио: MPEG Audio, 48 КГц, 2 ch, ~128 кбит/с Звук: японский.
Тип субтитров: русские в контейнере, английские хардсаб. Перевод: Misato (1-7), Kitsune (8-26)

Описание: Однажды, давным давно, во времена такие давние, что люди толком и припомнить не могут, на южном континенте Aolai была высокая гора под названием Цветок и Фрукт. А на вершине её находился огромный камень. На протяжении долгого времени он впитывал в себя духи Неба и Земли. Очень долгого времени. И вот наконец... вылупилась из этого камня какая-то весьма странная и непонятная зверушка! Причем весьма самодовольная и жадная, к слову сказать. И звали это неведомое создание сыном Гоку. Так вот, позднее, в наши дни, один весьма миловидный парень отправился в путешествие в поисках неведомых Скриптов. Путешествие не заладилось с самого начала - монстры просто покоя не давали! То лошадь съедят, то одному из сопроваждающих монахов голову откусят. Но судьбе угодно было помочь этому милому страннику. Потеряв почти все, он случайно встречает на пути старца, который начинает тому упорно втюхивать непонятного помощника, который, мол, ждет себе Мастера уже 500 лет! И нет, чтобы в этот судьбоносный момент здравомыслию все-таки взять верх, и Санзо-сану отказаться от этого сомнительного предложения и идти себе дальше! Но после хитрых ухищрений наша милая зверюшка таки присоеденяется к путнику, и продолжают путь они уже вместе...
© World Art
Код:

Общее
Полное имя                               : R:\torrent\[aarinfantasy-RyRo]_Patalliro_Saiyuki\Patalliro Saiyuki 01.avi
Формат                                   : AVI
Формат/Информация                        : Audio Video Interleave
Размер файла                             : 85,0 Мбайт
Продолжительность                        : 9 м. 29 с.
Общий поток                              : 1251 Кбит/сек
Программа кодирования                    : VirtualDubMod 1.5.10.1 (build 2366/release)
Библиотека кодирования                   : VirtualDubMod build 2366/release

Видео
Идентификатор                            : 0
Формат                                   : MPEG-4 Visual
Профиль формата                          : Advanced Simple@L5
Параметр BVOP формата                    : 2
Параметр QPel формата                    : Нет
Параметр GMC формата                     : 3 точки перехода
Параметр матрицы формата                 : Default (H.263)
Режим смешивания                         : Сжатый битовый поток
Идентификатор кодека                     : XVID
Идентификатор кодека/Подсказка           : XviD
Продолжительность                        : 9 м. 29 с.
Битрейт                                  : 1113 Кбит/сек
Ширина                                   : 640 пикселей
Высота                                   : 480 пикселей
Соотношение сторон                       : 4:3
Частота кадров                           : 23,976 кадра/сек
Цветовое пространство                    : YUV
Субдискретизация насыщенности            : 4:2:0
Битовая глубина                          : 8 бит
Тип развёртки                            : Прогрессивная
Метод сжатия                             : С потерями
Бит/(Пиксели*Кадры)                      : 0.151
Размер потока                            : 75,7 Мбайт (89%)
Библиотека кодирования                   : XviD 1.1.0 Beta2 (UTC 2005-04-04)

Аудио
Идентификатор                            : 1
Формат                                   : MPEG Audio
Версия формата                           : Version 1
Профиль формата                          : Layer 3
Режим                                    : Joint stereo
Идентификатор кодека                     : 55
Идентификатор кодека/Подсказка           : MP3
Продолжительность                        : 9 м. 29 с.
Вид битрейта                             : Постоянный
Битрейт                                  : 128 Кбит/сек
Каналы                                   : 2 канала
Частота                                  : 48,0 КГц
Метод сжатия                             : С потерями
Размер потока                            : 8,70 Мбайт (10%)
Выравнивание                             : Соединение по промежуткам
Продолжительность промежутка             : 42  мс. (1,00 видеокадр)
Время предзагрузки промежутка            : 504  мс.
Библиотека кодирования                   : LAME3.97a
Настройки программы                      : -m j -V 4 -q 2 -lowpass 17 -b 128
01. Появление Сон Гоку Путешествие за Священными Свитками - Часть первая
02. Появление Сон Гоку Путешествие за Священными Свитками - Часть вторая
03. Появление Сон Гоку Путешествие за Священными Свитками - Часть третья
04. Начало путешествия. Полный бардак - Часть первая
05. Начало путешествия. Полный бардак - Часть вторая
06. Начало путешествия. Полный бардак - Часть третья
07. Схватка! Серебряный и Золотой демоны - Часть третья
08. Схватка! Серебряный и Золотой демоны - Часть первая
09. Схватка! Серебряный и Золотой демоны - Часть вторая
10. Праздник мира Демонов. Операция "Спасение Санзо" - Часть первая
11. Праздник мира Демонов. Операция "Спасение Санзо" - Часть вторая
12. Праздник мира Демонов. Операция "Спасение Санзо" - Часть третья
13. Приманка для Санзо. Конкурс красоты, полный опасностей - Часть первая
14. Приманка для Санзо. Конкурс красоты, полный опасностей - Часть вторая
15. Приманка для Санзо. Конкурс красоты, полный опасностей - Часть третья
16. Внезапное нападение Адской Кроваво-красной Молнии - Часть первая
17. Внезапное нападение Адской Кроваво-красной Молнии - Часть вторая
18. Внезапное нападение Адской Кроваво-красной Молнии - Часть третья
19. Небесный переполох! И всё из-за Ангела Любви - Часть первая
20. Небесный переполох! И всё из-за Ангела Любви - Часть вторая
21. Небесный переполох! И всё из-за Ангела Любви - Часть третья
22. Битва не на жизнь, а на смерть! - Часть первая
23. Битва не на жизнь, а на смерть! - Часть вторая
24. Битва не на жизнь, а на смерть! - Часть третья
25. Большой взрыв небесной печи?! - Часть первая
26. Большой взрыв небесной печи?! - Часть вторая
#1 Boku Pataliro! - ТВ (49 эп.), адаптация манги, 1982
#2 Pataliro! Stardust Keikaku - к/ф, продолжение, 1983
#3 Pataliro Saiyuki! - ТВ (26 эп.), адаптация манги, 2005

Ссылки:
Ani-DB ::: World Art
Скриншоты:






Время раздачи: По мере возможности
[NNM-Club.ru]_[aarinfantasy-RyRo]_Patalliro_Saiyuki.torrent
 Торрент:   Зарегистрирован
 
Зарегистрируйтесь и скачайте торрент!
23 KB

Примагнититься
 Зарегистрирован:   15 Май 2013 17:22:44
 Размер:   1,94 GB  (
 Рейтинг:   3,9 (Голосов: 17)
 Поблагодарили:   14
 Проверка:   Оформление проверено модератором 15 Май 2013 17:26:42
Как cкачать  ·  Как раздать  ·  Правильно оформить  ·  Поднять ратио!  
Загрузка...
Показать сообщения:   
Начать новую тему   Ответить на тему    Торрент-трекер NNM-Club -> Аниме разное -> Аниме хардсаб Часовой пояс: GMT + 3
Страница 1 из 1