Классический форум-трекер
canvas not supported
Нас вместе: 4 079 121

Русский музей - детям (2003) DVDRip


 
 
RSS
Начать новую тему   Ответить на тему    Торрент-трекер NNM-Club -> Видео -> Развивающее Видео для детей
Автор Сообщение
starklad ®
RG Всё лучшее - детям!
Реставратор Детского, Uploader 100+
 
Стаж: 7 лет 10 мес.
Сообщений: 7923
Ratio: 12K
Поблагодарили: 198774
100%
Откуда: родом из СССР
ussr.gif
Русский музей - детям (2003) DVDRip
Русское название: Русский музей - детям
Год выпуска: 2003
Производство: Кордис & медиа, Квадрат Фильм (Россия)
Жанр: Обучающий
Режиссер: А.Кривонос

Описание фильма:
Видеофильмы серии «Русский музей – детям» разработаны с учетом возрастной детской психологии и рассчитаны на детей от 6 до 14 лет, а также могут быть использованы и для более взрослой аудитории.
Видеофильмы коллекции призваны возродить систему эстетического и художественного воспитания и являются целостной методической образовательной программой. Превосходные натурные съемки и музыкальное сопровождение обеспечивают познавательный и эмоциональный досуг.
Заложенная в продукты методика разработана Российским центром музейной педагогики и детского творчества при Русском музее (Санкт-Петербург). Коллекция «Русский музей – детям» удостоена Государственной премии за 2003 год и рекомендована Российской Академией Образования (Северо-западное Отделение) для занятий с детьми во внеурочное время.
1. Ты пришел в музей (1 серия)
2. Ты пришел в музей (2 серия)
3. Рождение картины. В мастерской художника
4. Рождение картины. От натуры к художественному образу
5. Рождение картины. Этюд, эскиз, композиция
6. Рождение картины. От замысла к воплощению
7. Как смотреть картину
8. Рисунок (1 серия)
9. Рисунок (2 серия)
10. Акварель
11. Пейзаж
12. Натюрморт
13. Портрет
14. Портрет. Художник и время (1 серия)
15. Портрет. Художник и время (2 серия)
16. Народное искусство
17. Скульптура (1серия)
18. Скульптура (2 серия)
19. Гравюра (1 серия)
20. Гравюра (2 серия)
Продолжительность: 08:40:51 (20x~00:26:05)
Качество видео: DVDRip

Видеокодек: mp42 codec
Битрейт видео: ~1534 kb/s
Размер кадра: 720х576
Аудиокодек: MP3 1 ch
Битрейт аудио: 64 kb/s
Формат : AVI
Формат/Информация : Audio Video Interleave
Размер файла : 305 Мбайт
Продолжительность : 26 м.
Общий поток : 1607 Кбит/сек
Программа кодирования : Nandub v1.0rc2
Библиотека кодирования : Nandub build 1853/release

Видео
Идентификатор : 0
Формат : MPEG-4 Visual
Идентификатор кодека : MP42
Идентификатор кодека/Информация : Microsoft MPEG-4 v2 (pre-standard)
Идентификатор кодека/Подсказка : Microsoft
Продолжительность : 26 м.
Битрейт : 1534 Кбит/сек
Ширина : 720 пикселей
Высота : 576 пикселей
Соотношение сторон : 5:4
Частота кадров : 25,000 кадров/сек
Стандарт вещания : PAL
Метод сжатия : С потерями
Бит/(Пиксели*Кадры) : 0.148
Размер потока : 291 Мбайт (95%)

Аудио
Идентификатор : 1
Формат : MPEG Audio
Версия формата : Version 1
Профиль формата : Layer 3
Идентификатор кодека : 55
Идентификатор кодека/Подсказка : MP3
Продолжительность : 26 м.
Вид битрейта : Постоянный
Битрейт : 64,0 Кбит/сек
Каналы : 1 канал
Частота : 44,1 КГц
Метод сжатия : С потерями
Размер потока : 12,0 Мбайт (4%)
Выравнивание : Разделение по промежуткам
Продолжительность промежутка : 40 мс. (1,01 видеокадр)
Время предзагрузки промежутка : 441 мс.
Скриншоты:


Смотрите так же другие мои раздачи

Спасибо за спасибо!


Время раздачи: с 8:00 до 24:00 до первых 10-ти скачавших, далее по возможности
[NNM-Club.ru]_Russkij_muzei_detiam.torrent
 Торрент: Платиновая раздача  Зарегистрирован
 
Скачать


Примагнититься
 Зарегистрирован:   20 Июн 2012 00:02:54
 Размер:   5,63 GB  (
 Рейтинг:   4,9 (Голосов: 44)
 Поблагодарили:   167
 Проверка:   Оформление проверено модератором 20 Июн 2012 20:46:19
Как cкачать  ·  Как раздать  ·  Правильно оформить  ·  Поднять ратио!  
Загрузка...
Egzeget1972
Стаж: 8 лет 2 мес.
Сообщений: 98
Ratio: 3,833
100%
russia.gif
Вполне обоснованно названо:ВСЁ ЛУЧШЕЕ ДЕТЯМ! Действительно Лучшее!Спасибо Вам-порадовали! :приветствую:
starklad ®
RG Всё лучшее - детям!
Реставратор Детского, Uploader 100+
 
Стаж: 7 лет 10 мес.
Сообщений: 7923
Ratio: 12K
Поблагодарили: 198774
100%
Откуда: родом из СССР
ussr.gif
Egzeget1972
И Вам спасибо за столь высокую оценку. :приветствую:
djakovka
Стаж: 8 лет 9 мес.
Сообщений: 2
Ratio: 1,915
100%
russia.gif
здравствуйте

спасибо большое, что выложили, очень понравились 2 последних фильма, но остальные почему-то не идут на телевизоре, не знаете в чем м.б проблема?

подумала, что в 1 раз скачала с ошибкой, но нет, скачала еще раз - все то же - первые фильмы не идут, только последние 2 показываются
starklad ®
RG Всё лучшее - детям!
Реставратор Детского, Uploader 100+
 
Стаж: 7 лет 10 мес.
Сообщений: 7923
Ratio: 12K
Поблагодарили: 198774
100%
Откуда: родом из СССР
ussr.gif
djakovka
К сожалению Вы правы , 1 - 18 фильмы кодек -
Цитата:
Идентификатор кодека/Подсказка : Microsoft

19 - 20
Цитата:
Идентификатор кодека/Подсказка : DivX 3 Low

Для просмотра я пользуюсь компьютером.
Стиль
Стаж: 11 лет
Сообщений: 201
Ratio: 11,902
100%
Спасибо.
feosv
Стаж: 9 лет 10 мес.
Сообщений: 64
Ratio: 12,679
100%
russia.gif
djakovka писал(а): Перейти к сообщению
здравствуйте

спасибо большое, что выложили, очень понравились 2 последних фильма, но остальные почему-то не идут на телевизоре, не знаете в чем м.б проблема?

подумала, что в 1 раз скачала с ошибкой, но нет, скачала еще раз - все то же - первые фильмы не идут, только последние 2 показываются


Такие вопросы я всегда решаю с помощью бесплатной программы Format Factory

На предпоследних этапах установки увидите окно с предложением установить поиск и тулбар- снимите обе галочки для отмены установки этих компонентов и продолжайте установку, далее предлагается установить оптимизатор системы, причём только в XP, в Windows7 такого нет, тоже откажитесь.
После установки запускайте программу (русский поддерживается) в меню слева выбираете-Видео- Все в AVI, откроется окно вверху кнопка "Настроить", жмете, появляется окно с настройками конвертирования. Если не выбран видеокодек MPEG4 Xvid , то кликаете по пункту видеокодек, справа появится стрелка с выпадающим меню, выбираете MPEG4 Xvid, создаете папку для обработанных файлов, указываете к ней путь, кнопкой "Добавить" добавляете файлы, которые будете обрабатывать (скаченные). Обрабатывать можно сразу все файлы, потом записываете и радуетесь) Есть DVD проигрыватели, которые не воспроизводят то, что мы скачиваем. После обработки воспроизводится всё-проверено неоднократно!

Интерфейс очень понятный и дружественный, думаю, разберётесь, только не забудьте снять галочки, когда предлагается установить дополнительные компоненты!
Показать сообщения:   
Начать новую тему   Ответить на тему    Торрент-трекер NNM-Club -> Видео -> Развивающее Видео для детей Часовой пояс: GMT + 3
Страница 1 из 1