Классический форум-трекер
canvas not supported
Нас вместе: 4 102 255

Утиные истории: Заветная лампа / DuckTales: The Movie - Treasure of the Lost Lamp (1990) WEB-DLRip [720p]


 
 
RSS
Начать новую тему   Ответить на тему    Торрент-трекер NNM-Club -> Мультфильмы -> Зарубежные Мультфильмы для детей
Автор Сообщение
romul7731 ®
Стаж: 9 лет 10 мес.
Сообщений: 203
Ratio: 26,707
Раздал: 25,4 TB
Поблагодарили: 21588
100%
Откуда: Донбасс
ussr.gif
Утиные истории: Заветная лампа / DuckTales: The Movie - Treasure of the Lost Lamp (1990) WEB-DLRip
Название: Утиные истории: Заветная лампа
Оригинальное название: DuckTales: The Movie - Treasure of the Lost Lamp
Год выпуска: 1990
Жанр: фэнтези, комедия, приключения, семейный, мультфильм
Выпущено: США, Франция

Перевод: Дубляж, Двухголосый закадровый, Одноголосый закадровый
Вид субтитров: Вшитые отключаемые
Язык субтитров: русский, украинский, английский

Релиз группа: HDClub



Режиссер: Боб Хэчкок
Персонажи: Алан Янг, Рип Тэйлор, Кристофер Ллойд, Расси Тэйлор, Ричард Либертини, Теренс МакГоверн, Джоан Гербер, Чак МакКанн, Джун Форэй, Чарльз Адлер

Описание фильма:
Присоединяйтесь к команде Утиных Историй, пересекающих египетскую пустыню в бесстрашном поиске легендарных сокровищ Колли Бабы. Захватывающие моменты будут преследовать главных героев на каждом шагу, по мере приближения к сказочным сокровищам, а злой маг Мерлок будет идти по пятам. Но смелые утки и не могли предположить, что вместе с сокровищами найдут волшебную лампу с настоящим джином, исполняющим желания!

Наполненный весельем, приключениями и обожаемыми героями, фильм «Утиные истории: Заветная лампа» — истинная классика студии Disney, которой насладится вся Ваша семья!

Продолжительность: 01:13:51
Качество видео: WEB-DLRip 720р

Видеокодек: MPEG-4 AVC/H.264
Битрейт видео: ~4000 kbps
Размер кадра: 1206x720

Аудио1: русский: 48 kHz, AC3, 2/0 (L,R) ch, ~192.00 kbps avg |Дубляж|
Аудио2: русский: 48 kHz, AC3, 2/0 (L,R) ch, ~192.00 kbps avg |Двухголосый закадровый, Пётр Гланц и Татьяна Казакова|
Аудио3: русский: 48 kHz, AC3, 2/0 (L,R) ch, ~192.00 kbps avg |Одноголосый закадровый, Алексей Михалёв|
Аудио4: русский: 48 kHz, AC3, 1/0 (C) ch, ~192.00 kbps avg |Одноголосый закадровый, Юрий Живов|
Аудио5: русский: 48 kHz, AC3, 1/0 (C) ch, ~192.00 kbps avg |Одноголосый закадровый, Вартан Дохалов|
Аудио6: русский: 48 kHz, AC3, 1/0 (C) ch, ~192.00 kbps avg |Одноголосый закадровый, Александр Марченко|
Аудио7: русский: 48 kHz, AC3, 1/0 (C) ch, ~192.00 kbps avg |Одноголосый закадровый, Андрей Дольский|
Аудио8: украинский: 48 kHz, AC3, 1/0 (C) ch, ~192.00 kbps avg |Дубляж|
Аудио9: русский: 48 kHz, AC3, 2/0 (L,R) ch, ~192.00 kbps avg |From DVD R1|
Аудио10: английский: 48 kHz, AAC, 2/0 (L,R) ch, ~160.00 kbps avg |iTunes original|
Общее
Уникальный идентификатор : 199835639392552835204121804651705429816 (0x9656F1B62FA1CD2D8B14D0A824746F38)
Полное имя :DuckTales.The Movie.Treasure.of.the.Lost.Lamp.1990.720p.WEB-DL.7xRus.Ukr.2xEng.HDCLUB.mkv
Формат : Matroska
Версия формата : Version 4 / Version 2
Размер файла : 3,06 Гбайт
Продолжительность : 1 ч. 13 м.
Общий поток : 5942 Кбит/сек
Название фильма : DuckTales: The Movie - Treasure of the Lost Lamp (1990)
Дата кодирования : UTC 2010-02-22 21:41:31
Программа кодирования : mkvmerge v5.9.0 ('On The Loose') built on Dec 9 2012 15:37:01
Библиотека кодирования : libebml v1.3.0 + libmatroska v1.4.0

Видео
Идентификатор : 1
Формат : AVC
Формат/Информация : Advanced Video Codec
Профиль формата : High@L3.1
Параметр CABAC формата : Нет
Параметр ReFrames формата : 2 кадра
Идентификатор кодека : V_MPEG4/ISO/AVC
Продолжительность : 1 ч. 13 м.
Ширина : 1206 пикселей
Высота : 720 пикселей
Соотношение сторон : 1,675
Режим частоты кадров : Постоянный
Частота кадров : 23,976 кадра/сек
Цветовое пространство : YUV
Субдискретизация насыщенности : 4:2:0
Битовая глубина : 8 бит
Тип развёртки : Прогрессивная
Заголовок : DuckTales: The Movie - Treasure of the Lost Lamp (1990)
Язык : English
Default : Да
Forced : Нет
Основные цвета : BT.709
Характеристики трансфера : BT.709
Коэффициенты матрицы : BT.709

Аудио #1
Идентификатор : 2
Формат : AC-3
Формат/Информация : Audio Coding 3
Профиль формата : Dolby Digital
Расширение режима : CM (complete main)
Параметр Endianness формата : Big
Идентификатор кодека : A_AC3
Продолжительность : 1 ч. 13 м.
Вид битрейта : Постоянный
Битрейт : 192 Кбит/сек
Каналы : 2 канала
Расположение каналов : Front: L R
Частота : 48,0 КГц
Битовая глубина : 16 бит
Метод сжатия : С потерями
Размер потока : 101 Мбайт (3%)
Заголовок : DD 2.0 @ 192 kbps @ Дубляж
Язык : Russian
Default : Да
Forced : Нет

Аудио #2
Идентификатор : 3
Формат : AC-3
Формат/Информация : Audio Coding 3
Профиль формата : Dolby Digital
Расширение режима : CM (complete main)
Параметр Endianness формата : Big
Идентификатор кодека : A_AC3
Продолжительность : 1 ч. 13 м.
Вид битрейта : Постоянный
Битрейт : 192 Кбит/сек
Каналы : 2 канала
Расположение каналов : Front: L R
Частота : 48,0 КГц
Битовая глубина : 16 бит
Метод сжатия : С потерями
Размер потока : 101 Мбайт (3%)
Заголовок : DD 2.0 @ 192 kbps @ DVO, Пётр Гланц и Татьяна Казакова
Язык : Russian
Default : Нет
Forced : Нет

Аудио #3
Идентификатор : 4
Формат : AC-3
Формат/Информация : Audio Coding 3
Профиль формата : Dolby Digital
Расширение режима : CM (complete main)
Параметр Endianness формата : Big
Идентификатор кодека : A_AC3
Продолжительность : 1 ч. 13 м.
Вид битрейта : Постоянный
Битрейт : 192 Кбит/сек
Каналы : 2 канала
Расположение каналов : Front: L R
Частота : 48,0 КГц
Битовая глубина : 16 бит
Метод сжатия : С потерями
Размер потока : 101 Мбайт (3%)
Заголовок : DD 2.0 @ 192 kbps @ AVO, Алексей Михалёв
Язык : Russian
Default : Нет
Forced : Нет

Аудио #4
Идентификатор : 5
Формат : AC-3
Формат/Информация : Audio Coding 3
Расширение режима : CM (complete main)
Параметр Endianness формата : Big
Идентификатор кодека : A_AC3
Продолжительность : 1 ч. 13 м.
Вид битрейта : Постоянный
Битрейт : 192 Кбит/сек
Каналы : 1 канал
Расположение каналов : Front: C
Частота : 48,0 КГц
Битовая глубина : 16 бит
Метод сжатия : С потерями
Размер потока : 101 Мбайт (3%)
Заголовок : DD 1.0 @ 192 kbps @ AVO, Ю.Живов
Язык : Russian
Default : Нет
Forced : Нет

Аудио #5
Идентификатор : 6
Формат : AC-3
Формат/Информация : Audio Coding 3
Расширение режима : CM (complete main)
Параметр Endianness формата : Big
Идентификатор кодека : A_AC3
Продолжительность : 1 ч. 13 м.
Вид битрейта : Постоянный
Битрейт : 192 Кбит/сек
Каналы : 1 канал
Расположение каналов : Front: C
Частота : 48,0 КГц
Битовая глубина : 16 бит
Метод сжатия : С потерями
Размер потока : 101 Мбайт (3%)
Заголовок : DD 1.0 @ 192 kbps @ AVO, Вартан Дохалов
Язык : Russian
Default : Нет
Forced : Нет

Аудио #6
Идентификатор : 7
Формат : AC-3
Формат/Информация : Audio Coding 3
Расширение режима : CM (complete main)
Параметр Endianness формата : Big
Идентификатор кодека : A_AC3
Продолжительность : 1 ч. 13 м.
Вид битрейта : Постоянный
Битрейт : 192 Кбит/сек
Каналы : 1 канал
Расположение каналов : Front: C
Частота : 48,0 КГц
Битовая глубина : 16 бит
Метод сжатия : С потерями
Размер потока : 101 Мбайт (3%)
Заголовок : DD 1.0 @ 192 kbps @ AVO, Александр Марченко
Язык : Russian
Default : Нет
Forced : Нет

Аудио #7
Идентификатор : 8
Формат : AC-3
Формат/Информация : Audio Coding 3
Расширение режима : CM (complete main)
Параметр Endianness формата : Big
Идентификатор кодека : A_AC3
Продолжительность : 1 ч. 13 м.
Вид битрейта : Постоянный
Битрейт : 192 Кбит/сек
Каналы : 1 канал
Расположение каналов : Front: C
Частота : 48,0 КГц
Битовая глубина : 16 бит
Метод сжатия : С потерями
Размер потока : 101 Мбайт (3%)
Заголовок : DD 1.0 @ 192 kbps @ AVO, Андрей Дольский
Язык : Russian
Default : Нет
Forced : Нет

Аудио #8
Идентификатор : 9
Формат : AC-3
Формат/Информация : Audio Coding 3
Расширение режима : CM (complete main)
Параметр Endianness формата : Big
Идентификатор кодека : A_AC3
Продолжительность : 1 ч. 13 м.
Вид битрейта : Постоянный
Битрейт : 192 Кбит/сек
Каналы : 1 канал
Расположение каналов : Front: C
Частота : 48,0 КГц
Битовая глубина : 16 бит
Метод сжатия : С потерями
Размер потока : 101 Мбайт (3%)
Заголовок : DD 1.0 @ 192 kbps @ Дубляж
Язык : Ukrainian
Default : Нет
Forced : Нет

Аудио #9
Идентификатор : 10
Формат : AC-3
Формат/Информация : Audio Coding 3
Профиль формата : Dolby Digital
Расширение режима : CM (complete main)
Параметр Endianness формата : Big
Идентификатор кодека : A_AC3
Продолжительность : 1 ч. 13 м.
Вид битрейта : Постоянный
Битрейт : 192 Кбит/сек
Каналы : 2 канала
Расположение каналов : Front: L R
Частота : 48,0 КГц
Битовая глубина : 16 бит
Метод сжатия : С потерями
Размер потока : 101 Мбайт (3%)
Заголовок : DD 2.0 @ 192 kbps @ Original from DVD
Язык : English
Default : Нет
Forced : Нет

Аудио #10
Идентификатор : 11
Формат : AAC
Формат/Информация : Advanced Audio Codec
Профиль формата : LC
Идентификатор кодека : A_AAC
Продолжительность : 1 ч. 13 м.
Каналы : 2 канала
Расположение каналов : Front: L R
Частота : 48,0 КГц
Метод сжатия : С потерями
Заголовок : AAC 2.0 @ ~160 kbps @ ITunes original
Язык : English
Default : Нет
Forced : Нет

Текст #1
Идентификатор : 12
Формат : UTF-8
Идентификатор кодека : S_TEXT/UTF8
Идентификатор кодека/Информация : UTF-8 Plain Text
Заголовок : Russian @ SRT
Язык : Russian
Default : Нет
Forced : Нет

Текст #2
Идентификатор : 13
Формат : UTF-8
Идентификатор кодека : S_TEXT/UTF8
Идентификатор кодека/Информация : UTF-8 Plain Text
Заголовок : Ukrainian @ SRT
Язык : Ukrainian
Default : Нет
Forced : Нет

Текст #3
Идентификатор : 14
Формат : UTF-8
Идентификатор кодека : S_TEXT/UTF8
Идентификатор кодека/Информация : UTF-8 Plain Text
Заголовок : English @ SRT
Язык : English
Default : Нет
Forced : Нет

Меню
00:00:00.000 : en:Opening Titles/Finding The Map
00:06:22.000 : en:The Lost Pyramid
00:18:50.000 : en:The Genie Is Released
00:27:26.000 : en:The Meanest Master
00:31:56.000 : en:Merlock The Rat
00:36:49.000 : en:The Jig Is Up
00:42:56.000 : en:Scrooge On The Run
00:48:27.000 : en:The Unlikely Master
00:52:00.000 : en:Scrooge Behind Bars
00:55:14.000 : en:Fighting Back
00:59:35.000 : en:Merlock's Back In Charge
01:06:09.000 : en:The Ultimate Wish/End Credits
Скриншоты:

Утиные истории: Заветная лампа на NNM-CLUB

Время раздачи: до пяти сидов
[NNM-Club.ru]_DuckTales.The Movie.Treasure.of.the.Lost.Lamp.1990.720p.WEB-DL.7xRus.Ukr.2xEng..mkv.torrent
 Торрент: Платиновая раздача  Зарегистрирован
 
Скачать


Примагнититься
 Зарегистрирован:   13 Июл 2013 14:34:52
 Размер:   3,06 GB  (
 Рейтинг:   4,9 (Голосов: 109)
 Поблагодарили:   443
 Проверка:   Оформление проверено модератором 13 Июл 2013 14:43:52
Как cкачать  ·  Как раздать  ·  Правильно оформить  ·  Поднять ратио!  
Art!P
Стаж: 9 лет 2 мес.
Сообщений: 307
Ratio: 44,879
100%
Беру
Детишки любят

_________________
Тот кто всё время утверждает что он не дурак, вызывает подозрения по этому поводу.
JoeM

Online
Стаж: 9 лет 7 мес.
Сообщений: 44
Ratio: 22,918
100%
Откуда: Новосибирск
russia.gif
а есть все части ?

_________________
Качай Тело, Душа Все Равно Бессмертна!!!
Likeice
Стаж: 6 лет 10 мес.
Сообщений: 399
Ratio: 37
Раздал: 68,77 TB
Поблагодарили: 4208
9.43%
Откуда: обзавидуешься
witch.png
Ударился в детство :клево:
stealth_zte
Uploader 100+
Стаж: 7 лет 7 мес.
Сообщений: 268
Ratio: 171,853
Раздал: 245,1 TB
Поблагодарили: 646
100%
russia.gif
JoeM писал(а): Перейти к сообщению
а есть все части ?
Это отдельный мульт а не сериал.
Joi_MD
Стаж: 8 лет 1 мес.
Сообщений: 233
Ratio: 8,106
Раздал: 9,594 TB
Поблагодарили: 257
100%
pirates.png
Шикарно, мульты из детства возвращаются :крутой:

_________________
Макс. скорость: 9,28 MB/s, 9,51 MB/s
Raptor303
Стаж: 8 лет 7 мес.
Сообщений: 4762
Ratio: 46,228
100%
estonia.gif
JoeM писал(а): Перейти к сообщению
а есть все части ?

Есть конечно. Вот пример:
Утиные Истории / Duck Tales (полная колекция: все мультфильмы, игры, комиксы, книги) (1987-2007) [SatRip, DVDRip] [Club Special Edition]
Правда, я качал с другого трекера в более высоком качестве весь сериал (здесь эпизод весит порядка 230 mb, а там где я брал - 700-800 mb).
Gyrch2
Стаж: 9 лет 2 мес.
Сообщений: 128
Ratio: 2,656
100%
Откуда: Алма-Ата,​Алма-Ата​ не город,а сама мечта!
kazakhstan.gif
428-раз нажал красную кнопку с надписью "Спасибо"

_________________
El pueblo unido jamás será vencido
Пока мы едины, мы непобедимы
Aorum
Стаж: 9 лет 10 мес.
Сообщений: 232
Ratio: 32,031
Поблагодарили: 2395
100%
Откуда: Black Mesa
ussr.gif
Gyrch2 писал(а): Перейти к сообщению
428-раз нажал красную кнопку с надписью "Спасибо"

Мышка жива после этого?

_________________
Я стар, я очень стар, я просто Superstar!
Сергей7330
Стаж: 9 лет 3 мес.
Сообщений: 1
Ratio: 5,001
90.36%
Спасибо с удовольствием буду смотреть с ребенком!
duranki
Стаж: 5 лет
Сообщений: 18
Ratio: 5,871
100%
благодарю
OldMovie
Стаж: 9 лет 3 мес.
Сообщений: 629
Ratio: 2472,668
Поблагодарили: 5342
100%
не пойму, почему этот фильм провалился в прокате?
lllEaglelll
Стаж: 8 лет 1 мес.
Сообщений: 16
Ratio: 13,019
100%
Класс, спасибо за мультик. Дети в восторге.
Показать сообщения:   
Начать новую тему   Ответить на тему    Торрент-трекер NNM-Club -> Мультфильмы -> Зарубежные Мультфильмы для детей Часовой пояс: GMT + 3
Страница 1 из 1