Классический форум-трекер
canvas not supported
Нас вместе: 4 079 563

Веселые ребята (1934) HDTVRip [480p] iPhone/iPad [Цветная версия]


 
 
RSS
Начать новую тему   Ответить на тему    Торрент-трекер NNM-Club -> Аудио и Видео -> Отечественное видео для устройств Apple
Автор Сообщение
gekka ®
RG Apple
 
Стаж: 12 лет 8 мес.
Сообщений: 2123
Ratio: 96,238
Поблагодарили: 131285
100%
Откуда: Москва, Дорогомилово
ussr.gif
Веселые ребята (1934) HDTVRip [480p] iPhone/iPad [Цветная версия]

Русское название: Веселые ребята
Оригинальное название: Веселые ребята
Год выпуска: 1934
Производство: СССР / © Мосфильм
Жанр: мюзикл, комедия

Перевод: не требуется
Язык субтитров: отсутствует
Субтитры: отсутствует
Навигация: по главам

Режиссёр: Григорий Александров
В ролях: Леонид Утесов, Любовь Орлова, Мария Стрелкова, Мария Иванова, Елена Тяпкина, Федор Курихин, Арнольд Арнольд, Роберт Эрдман, Эммануил Геллер, Юрий Медведев

Описание: Музыкальная комедия о похождениях жизнерадостного пастуха-музыканта Кости Потехина, которого приняли за модного заграничного гастролера. В одесском мюзик-холле простодушный Костя произвел сенсацию и стал дирижером джаз-оркестра. Его оркестр готовится к выступлению на сцене Большого театра, а вместо репетиций играет на похоронах...



Дата мировой премьеры: 9 декабря 1934
Дата Российской премьеры: -
Рейтинг MPAA -R

Продолжительность: 01:29:44
Качество видео: HDTVRip
Видеокодек: MPEG-4 AVC/H.264
Битрейт видео: ~ 2 235 kbps
Размер кадра: 576x480
Аудио:
* AAC 2.0 120 kbps - Русский
Код:

Общее
Полное имя : /Users/gekkas/Movies/PIC/Vesyolye rebyata.1934 (SD).m4v
Формат : MPEG-4
Идентификатор кодека : M4V
Размер файла : 1,48 Гбайт
Продолжительность : 1 ч. 29 м.
Режим общего битрейта : Переменный
Общий поток : 2360 Кбит/сек
Название фильма : Весёлые ребята
Исполнитель : Григорий Александров
Жанр : Comedy
Дата записи : 1934-01-01
Дата кодирования : UTC 2013-08-10 09:56:20
Дата пометки : UTC 2013-08-14 16:29:34
Правообладатель : © Мосфильм
Обложка : Yes
sonm : Весёлые ребята
desc : Музыкальная комедия о похождениях жизнерадостного пастуха-музыканта Кости Потехина, которого приняли за модного заграничного гастролера. В одесском мюзик-холле простодушный Костя произвел сенсацию и стал дирижером джаз-оркестра.
ldes : Музыкальная комедия о похождениях жизнерадостного пастуха-музыканта Кости Потехина, которого приняли за модного заграничного гастролера. В одесском мюзик-холле простодушный Костя произвел сенсацию и стал дирижером джаз-оркестра. Его оркестр готовится к выступлению на сцене Большого театра, а вместо репетиций играет на похоронах…
stik : 9
rtng : 0
akID : -1
cnID : 45757
xid : Apple:vendor_id:1934-45757
iTunMOVI : <?xml version="1.0" encoding="UTF-8"?> / <!DOCTYPE plist PUBLIC "-//Apple//DTD PLIST 1.0//EN" "http://www.apple.com/DTDs/PropertyList-1.0.dtd"> / <plist version="1.0"> / <dict> /   <key>cast</key> /   <array> /     <dict> /       <key>name</key> /       <string>Леонид Утесов</string> /     </dict> /     <dict> /       <key>name</key> /       <string>Любовь Орлова</string> /     </dict> /     <dict> /       <key>name</key> /       <string>Мария Стрелкова</string> /     </dict> /     <dict> /       <key>name</key> /       <string>Мария Иванова</string> /     </dict> /     <dict> /       <key>name</key> /       <string>Елена Тяпкина</string> /     </dict> /     <dict> /       <key>name</key> /       <string>Федор Курихин</string> /     </dict> /     <dict> /       <key>name</key> /       <string>Арнольд Арнольд</string> /     </dict> /     <dict> /       <key>name</key> /       <string>Роберт Эрдман</string> /     </dict> /     <dict> /       <key>name</key> /       <string>Эммануил Геллер</string> /     </dict> /     <dict> /       <key>name</key> /       <string>Юрий Медведев</string> /     </dict> /   </array> /   <key>directors</key> /   <array> /     <dict> /       <key>name</key> /       <string>Григорий Александров</string> /     </dict> /   </array> / </dict> / </plist>
Видео #1
Идентификатор : 1
Формат : AVC
Формат/Информация : Advanced Video Codec
Профиль формата : Baseline@L3.0
Параметр CABAC формата : Нет
Параметр ReFrames формата : 2 кадра
Параметр GOP формата : N=1
Идентификатор кодека : avc1
Идентификатор кодека/Информация : Advanced Video Coding
Продолжительность : 1 ч. 29 м.
Битрейт : 2235 Кбит/сек
Максимальный битрейт : 7333 Кбит/сек
Ширина : 576 пикселей
Высота : 480 пикселей
Соотношение сторон : 1,200
Режим частоты кадров : Постоянный
Частота кадров : 25,000 кадров/сек
Цветовое пространство : YUV
Субдискретизация насыщенности : 4:2:0
Битовая глубина : 8 бит
Тип развёртки : Прогрессивная
Бит/(Пиксели*Кадры) : 0.323
Размер потока : 1,40 Гбайт (95%)
Заголовок : Vesyelie Rebyata (1934) [Remastered in color] Released for NNM-Club by gekka
Библиотека кодирования : x264 core 133 r2334+704+50 a7549b7 tMod [8-bit@4:2:0 X86_64]
Настройки программы : cabac=0 / ref=2 / deblock=1:-1:-1 / analyse=0x1:0x131 / me=umh / subme=7 / psy=1 / fade_compensate=1.00 / psy_rd=0.90:0.10 / mixed_ref=1 / me_range=32 / chroma_me=1 / trellis=2 / 8x8dct=0 / cqm=0 / deadzone=21,11 / fast_pskip=0 / chroma_qp_offset=-3 / threads=18 / lookahead_threads=3 / sliced_threads=0 / nr=0 / decimate=0 / interlaced=0 / bluray_compat=0 / constrained_intra=0 / fgo=10 / bframes=0 / weightp=0 / keyint=250 / keyint_min=25 / scenecut=40 / intra_refresh=0 / rc_lookahead=120 / rc=crf / mbtree=1 / crf=18.0000 / qcomp=0.70 / qpmin=0 / qpmax=69 / qpstep=4 / vbv_maxrate=5000 / vbv_bufsize=5000 / crf_max=0.0 / nal_hrd=none / ip_ratio=1.35 / aq=4:0.90 / aq-sensitivity=10.00 / aq-factor=1.00:1.00:1.00 / aq2=0 / aq3=0
Язык : Russian
Дата кодирования : UTC 2013-08-10 09:56:20
Дата пометки : UTC 2013-08-10 09:56:29
Коэффициенты матрицы : BT.709
Видео #2
Идентификатор : 4
Формат : JPEG
Идентификатор кодека : jpeg
Продолжительность : 1 ч. 29 м.
Duration_LastFrame : -15 с.
Вид битрейта : Переменный
Битрейт : 950 бит/сек
Ширина : 576 пикселей
Высота : 480 пикселей
Соотношение сторон : 1,200
Режим частоты кадров : Постоянный
Частота кадров : 0,002 кадр/сек
Цветовое пространство : YUV
Субдискретизация насыщенности : 4:2:0
Битовая глубина : 8 бит
Метод сжатия : С потерями
Бит/(Пиксели*Кадры) : 1.718
Размер потока : 522 Кбайт (0%)
Язык : Russian
Дата кодирования : UTC 2013-08-14 16:29:31
Дата пометки : UTC 2013-08-14 16:29:31
Аудио
Идентификатор : 2
Формат : AAC
Формат/Информация : Advanced Audio Codec
Профиль формата : LC
Идентификатор кодека : 40
Продолжительность : 1 ч. 29 м.
Вид битрейта : Переменный
Битрейт : 121 Кбит/сек
Максимальный битрейт : 157 Кбит/сек
Каналы : 2 канала
Расположение каналов : Front: L R
Частота : 48,0 КГц
Метод сжатия : С потерями
Размер потока : 77,9 Мбайт (5%)
Заголовок : AAC Russian
Язык : Russian
Дата кодирования : UTC 2013-08-10 09:56:27
Дата пометки : UTC 2013-08-10 09:56:29
Меню #1
00:00:00.000 : Chapter 1
00:10:00.000 : Chapter 2
00:20:00.000 : Chapter 3
00:30:00.000 : Chapter 4
00:40:00.000 : Chapter 5
00:50:00.000 : Chapter 6
01:00:00.000 : Chapter 7
01:10:00.000 : Chapter 8
01:20:00.000 : Chapter 9
Меню #2
Идентификатор : 3
Идентификатор кодека : text
Продолжительность : 1 ч. 29 м.
Язык : Russian
Дата кодирования : UTC 2013-08-14 16:29:28
Дата пометки : UTC 2013-08-14 16:29:28
Вид битрейта : CBR
Duration_LastFrame : -15480
00:00:00.000 : Chapter 1
00:10:00.000 : Chapter 2
00:20:00.000 : Chapter 3
00:30:00.000 : Chapter 4
00:40:00.000 : Chapter 5
00:50:00.000 : Chapter 6
01:00:00.000 : Chapter 7
01:10:00.000 : Chapter 8
01:20:00.000 : Chapter 9

Sort Name: Весёлые ребята
iTunes Account Type: 255
XID: Apple:vendor_id:1934-45757
contentID: 45757
Copyright: © Мосфильм
Director: Григорий Александров
Cast: Леонид Утесов, Любовь Орлова, Мария Стрелкова, Мария Иванова, Елена Тяпкина, Федор Курихин, Арнольд Арнольд, Роберт Эрдман, Эммануил Геллер, Юрий Медведев
Long Description: Музыкальная комедия о похождениях жизнерадостного пастуха-музыканта Кости Потехина, которого приняли за модного заграничного гастролера. В одесском мюзик-холле простодушный Костя произвел сенсацию и стал дирижером джаз-оркестра. Его оркестр готовится к выступлению на сцене Большого театра, а вместо репетиций играет на похоронах…
Description: Музыкальная комедия о похождениях жизнерадостного пастуха-музыканта Кости Потехина, которого приняли за модного заграничного гастролера. В одесском мюзик-холле простодушный Костя произвел сенсацию и стал дирижером джаз-оркестра.
Release Date: 1934-01-01
Genre: Comedy
Artist: Григорий Александров
Name: Весёлые ребята

x264 [info]: frame I:1481 Avg QP:16.13 size: 30537
x264 [info]: frame P:133132 Avg QP:18.72 size: 10959
x264 [info]: mb I I16..4: 20.8% 0.0% 79.2%
x264 [info]: mb P I16..4: 0.6% 0.0% 3.4% P16..4: 42.2% 24.7% 20.0% 2.3% 1.6% skip: 5.2%
x264 [info]: coded y,uvDC,uvAC intra: 84.6% 75.6% 44.5% inter: 54.5% 34.3% 12.5%
x264 [info]: i16 v,h,dc,p: 26% 12% 5% 58%
x264 [info]: i4 v,h,dc,ddl,ddr,vr,hd,vl,hu: 23% 17% 11% 7% 9% 10% 8% 8% 7%
x264 [info]: i8c dc,h,v,p: 52% 17% 22% 9%
x264 [info]: ref P L0: 86.6% 13.4%
x264 [info]: kb/s:2234.96
За исходник спасибо: - BLUEBIRD
Скриншоты:


Время раздачи: 24/7 до 10 скачавших
[NNM-Club.me]_Vesyolye rebyata.1934 (SD).torrent
 Торрент: Платиновая раздача  Зарегистрирован
 
Скачать


Примагнититься
 Зарегистрирован:   14 Авг 2013 19:43:58
 Размер:   1,48 GB  (
 Рейтинг:   4,8 (Голосов: 33)
 Поблагодарили:   98
 Проверка:   Оформление проверено модератором 14 Авг 2013 20:57:22
Как cкачать  ·  Как раздать  ·  Правильно оформить  ·  Поднять ратио!  
sulinoleg
Стаж: 8 лет
Сообщений: 373
Ratio: 152,902
100%
Откуда: Из народа
russia.gif
В цвете еще не видел,спасибо

_________________
no comment
Северный_Гуляка
Стаж: 7 лет 7 мес.
Сообщений: 712
Ratio: 109,722
Поблагодарили: 638
100%
Откуда: СЕВЕР
ussr.gif
О ВРЕМЕНА, О НРАВЫ.... да, ЦВЕТНЫЕ НРАВЫ в СТАРЫЕ ВРЕМЕНА БЫ..
СПАСИБО ЗА ШЕДЕВР ПРОШЛОГО ВЕКА

_________________
Поддержу Интересные РедкоСидируемые Раздачи - Смотри (список) "Спасибо" (просьбу-ссылку в Личную берлогу - [ЛС]) [НОЧЬ по МСК Предпочтение]
Показать сообщения:   
Начать новую тему   Ответить на тему    Торрент-трекер NNM-Club -> Аудио и Видео -> Отечественное видео для устройств Apple Часовой пояс: GMT + 3
Страница 1 из 1