Классический форум-трекер
canvas not supported
Нас вместе: 4 079 541

Звонок / Ring / Ringu (1998) DVD5


 
 
RSS
Начать новую тему   Ответить на тему    Торрент-трекер NNM-Club -> Зарубежное кино -> Азиатское кино (DVD)
Автор Сообщение
АНДРЕЙ 132 ®
Стаж: 9 лет 1 мес.
Сообщений: 78
Ratio: 27,482
Поблагодарили: 3519
100%
Откуда: Днепр
ukraine.gif
Звонок / Ring / Ringu (1998) DVD5
«Перед тем, как ты умрешь, ты услышишь...»
Год выпуска: 1998
Жанр: Триллер, Ужасы, Детектив
Производство: Япония

Описание фильма:
Молодая женщина-репортер расследует загадочное суеверие о смертоносной видеокассете. В доме того, кто посмотрит ее, сначала раздается странный звонок по телефону, еще чуть позже его находят мертвым.
После того, как, видимо, такой же смертью умирает ее племянница, репортерша решает взяться за расследование и сама смотрит злополучную кассету. Чуть позже в ее квартире раздается звонок…

Режиссер: Хидео Наката
Актеры: Нанако Мацусима, Мики Накатани, Юко Такэути, Хитоми Сато, Ёити Нумата, Ютака Мацусигэ, Кацуми Мурамацу, Рикия Отака, Масако, Дайскэ Бан

Продолжительность: 01:35:04
Качество видео: DVD5
Перевод: Одноголосый закадровый
Язык субтитров: Нет



Меню: Русское,анимированное,озвученное
Дополнительные материалы: Нет

Дата мировой премьеры: 31.01.1998
Дата выхода DVD релиза: 20.05. 2010, «CP-Digital»

Видеокодек: MPEG-2
Битрейт видео: 3842 Кбит/сек
Размер кадра: PAL 4:3 (720x576) VBR, Auto Letterboxed
Аудио1: Русский: AC3, 6 ch, 448 Kbps
Аудио2: Японский: AC3, 6 ch, 448 Kbps(Оригинал)
Сэмпл: Ссылка
Title: Ring _DVDх5
Size: 3.34 Gb ( 3 503 990,00 KBytes ) - DVD-5
Enabled regions: 1, 2, 3, 4, 5, 6, 7, 8

VTS_01 :
Play Length: 00:00:00
Video: PAL 4:3 (720x576) VBR

VTS_02 :
Play Length: 01:35:04
Video: PAL 4:3 (720x576) VBR
Audio:
Russian (Dolby AC3, 6 ch)
Japanese (Dolby AC3, 6 ch)
Общее
Полное имя : G:\ Ring _DVDх5\VIDEO_TS\VTS_02_1.VOB
Формат : MPEG-PS
Размер файла : 1024 Мбайт
Продолжительность : 29 м.
Режим общего битрейта : Переменный
Общий поток : 4835 Кбит/сек

Видео
Идентификатор : 224 (0xE0)
Формат : MPEG Video
Версия формата : Version 2
Профиль формата : Main@Main
Параметр BVOP формата : Да
Параметр матрицы формата : Выборочная
Параметр GOP формата : Variable
Продолжительность : 29 м.
Вид битрейта : Переменный
Битрейт : 3842 Кбит/сек
Максимальный битрейт : 9800 Кбит/сек
Ширина : 720 пикселей
Высота : 576 пикселей
Соотношение сторон : 4:3
Частота кадров : 25,000 кадров/сек
Стандарт вещания : PAL
Цветовое пространство : YUV
Субдискретизация насыщенности : 4:2:0
Битовая глубина : 8 бит
Тип развёртки : Чересстрочная
Порядок развёртки : Нижнее поле первое
Метод сжатия : С потерями
Бит/(Пиксели*Кадры) : 0.371
Временной код первого кадра : 01:00:00:00
Оригинал временного кода : Group of pictures header
Размер потока : 814 Мбайт (79%)

Аудио #1
Идентификатор : 189 (0xBD)-128 (0x80)
Формат : AC-3
Формат/Информация : Audio Coding 3
Расширение режима : CM (complete main)
Параметр Endianness формата : Big
Режим смешивания : DVD-Video
Продолжительность : 29 м.
Вид битрейта : Постоянный
Битрейт : 448 Кбит/сек
Каналы : 6 каналов
Расположение каналов : Front: L C R, Side: L R, LFE
Частота : 48,0 КГц
Битовая глубина : 16 бит
Метод сжатия : С потерями
Задержка видео : 3 с. 240 мс.
Размер потока : 94,7 Мбайт (9%)

Аудио #2
Идентификатор : 189 (0xBD)-129 (0x81)
Формат : AC-3
Формат/Информация : Audio Coding 3
Расширение режима : CM (complete main)
Параметр Endianness формата : Big
Режим смешивания : DVD-Video
Продолжительность : 29 м.
Вид битрейта : Постоянный
Битрейт : 448 Кбит/сек
Каналы : 6 каналов
Расположение каналов : Front: L C R, Side: L R, LFE
Частота : 48,0 КГц
Битовая глубина : 16 бит
Метод сжатия : С потерями
Задержка видео : 3 с. 240 мс.
Размер потока : 94,7 Мбайт (9%)
Скриншоты:


Уважаемые пользователи!
Найдите пару минут поблагодарить релизера и высказаться в топике раздачи.
Ваше мнение - бальзам для раздающего и пища для ума остальным пользователям.
Время раздачи: 24/7 (круглосуточно)
[NNM-Club.me]_Ring _DVDh5.torrent
 Торрент: Платиновая раздача  Зарегистрирован
 
Скачать


Примагнититься
 Зарегистрирован:   15 Авг 2013 19:27:50
 Размер:   3,34 GB  (
 Рейтинг:   4,6 (Голосов: 14)
 Поблагодарили:   42
 Проверка:   Оформление проверено модератором 17 Авг 2013 10:53:35
Как cкачать  ·  Как раздать  ·  Правильно оформить  ·  Поднять ратио!  

_________________
Показать сообщения:   
Начать новую тему   Ответить на тему    Торрент-трекер NNM-Club -> Зарубежное кино -> Азиатское кино (DVD) Часовой пояс: GMT + 3
Страница 1 из 1