Классический форум-трекер
canvas not supported
Нас вместе: 4 078 926

Читаем Ветхий Завет (2009-2011) SATRip


 
 
RSS
Начать новую тему   Эта тема закрыта, вы не можете писать ответы и редактировать сообщения.    Торрент-трекер NNM-Club -> Религии и культы -> Религиозное видео
Автор Сообщение
МиSHа ®
Стаж: 8 лет 8 мес.
Сообщений: 1290
Ratio: 84,995
Поблагодарили: 43110
100%
russia.gif
Читаем Ветхий Завет (2009-2011) SATRip
Телекомпания: Союз
Год выпуска: 2009-2011
Жанр: Документальный

Описание:
Программа Константина Владиленовича Корепанова - преподавателя высших миссионерских курсов в г. Екатеринбурге - посвящена подробному разбору книг Ветхого Завета. Передача выходила в эфире телеканала «Союз» в 2009-2011 годах. В ней глубоко раскрываются образы и события из корпуса книг Ветхого Завета.

Продолжительность: 58:19:55(129 выпусков по ~25мин)
Качество видео: SATRip

Видеокодек: Xvid
Битрейт видео: ~1200 Кбит/сек
Размер кадра: 720/576, 720/480
Аудиокодек: MP3, 2ch
Битрейт аудио: 128 Кбит/сек, 44,1 КГц
Общее
Полное имя : F:\Ветхий Завет. Лекции Константина Корепанова\001.Vethyi_Zavet.Shestodnev.Part-1.avi
Формат : AVI
Формат/Информация : Audio Video Interleave
Размер файла : 272 Мбайт
Продолжительность : 28 м.
Общий поток : 1341 Кбит/сек
Программа кодирования : Lavf51.12.1

Видео
Идентификатор : 0
Формат : xvid
Идентификатор кодека : xvid
Продолжительность : 28 м.
Битрейт : 1200 Кбит/сек
Ширина : 720 пикс.
Высота : 576 пикс.
Соотношение сторон : 5:4
Частота кадров : 25,000 кадр/сек
Стандарт вещания : PAL
Бит/(Пиксели*Кадры) : 0.116
Размер потока : 244 Мбайт (90%)

Аудио
Идентификатор : 1
Формат : MPEG Audio
Версия формата : Version 1
Профиль формата : Layer 3
Режим : Joint stereo
Расширение режима : MS Stereo
Идентификатор кодека : 55
Идентификатор кодека/Подсказка : MP3
Продолжительность : 28 м.
Вид битрейта : Постоянный
Битрейт : 128 Кбит/сек
Каналы : 2 канала
Частота : 44,1 КГц
Метод сжатия : С потерями
Размер потока : 26,0 Мбайт (10%)
Выравнивание : Соединение по промежуткам
Продолжительность промежутка : 26 мс. (0,65 видеокадр)
Скриншоты:

Ветхий Завет
Время раздачи: с 10:00 до 20:00
Vethiy_Zavet_[nnm-club]_avi_.torrent
 Торрент: Платиновая раздача  Зарегистрирован
 
Скачать


Примагнититься
 Зарегистрирован:   02 Сен 2013 10:57:33
 Размер:   32,6 GB  (
 Рейтинг:   3,4 (Голосов: 26)
 Поблагодарили:   51
 Проверка:   Оформление проверено модератором 02 Сен 2013 10:57:50
Как cкачать  ·  Как раздать  ·  Правильно оформить  ·  Поднять ратио!  
Загрузка...
Показать сообщения:   
Начать новую тему   Эта тема закрыта, вы не можете писать ответы и редактировать сообщения.    Торрент-трекер NNM-Club -> Религии и культы -> Религиозное видео Часовой пояс: GMT + 3
Страница 1 из 1