Классический форум-трекер
canvas not supported
Нас вместе: 4 078 112

PBS. Невероятное путешествие бабочек / The Incredible Journey of the Butterflies (2008) BDRip [H.264/1080p]


 
 
RSS
Начать новую тему   Ответить на тему    Торрент-трекер NNM-Club -> Зарубежные TV-бренды -> PBS
Автор Сообщение
Отец Лоренцо ®
Uploader 1000+, Сталкер
Стаж: 7 лет 9 мес.
Сообщений: 4040
Ratio: 7393,141
Раздал: 1,0172 PB
Поблагодарили: 121771
100%
Откуда: Харьков, Украина
PBS. Невероятное путешествие бабочек / The Incredible Journey of the Butterflies (2008) BDRip [H.264/1080p]
Русское название: PBS. Невероятное путешествие бабочек
Оригинальное название: The Incredible Journey of the Butterflies
Страна: США
Режиссер / Телекомпания: Ник де Пенсьер / PBS Home Video
Год выпуска: 2008
Жанр: Документальный, научно-познавательный, природа, бабочки

Описание: Нигде в природе не существует более удивительного сочетания научного чуда, поразительной красоты и героических усилий ради выживания, чем в бабочке данаиды-монарха. Во время путешествия в тайный и удивительный мир бабочки NOVA посетит места, которые называют домом монарха, покажет его друзей и врагов (в том числе людей, которые оказываются с обеих сторон) и совершит с ними одно из самых вдохновляющих миграций, которую можно представить. Каждый год 100 миллионов бабочек монарха отправляются в невероятное путешествие со всей северной Америки. Эти грациозные создания пролетают 32 000 км, чтобы достичь цели: крошечная область высоко в горах Мексики. Однако учёные всё ещё гадают, как бабочки совершают такой подвиг; и как, год за годом, монархи находят направление с такой точностью. Путешествие демонстрирует монарха как научный феномен, вовлеченный в захватывающую борьбу за выживание.

Продолжительность: 00:53:46

Перевод: Двухголосый закадровый (любительский)
Субтитры: вшитые отключаемые (английские, русские)

Видеокодек: MPEG-4 AVC/H.264
Битрейт видео: ~ 9 000 Кбит/с
Размер кадра: 1920 x 1080
Качество видео: BDRip [1080p]
Аудио:
1. [английский] AC3, 6 ch, 640 Кбит/с
2. [русский] AC3, 6 ch, 448 Кбит/с
Общее
Уникальный идентификатор : 207807472310291961439017784726138396238 (0x9C56436B7E83A44CA47E4F34F2041E4E)
Полное имя : A:\Релизы\The.Incredible.Journey.of.the.Butterflies.BDRip.1080p.mkv
Формат : Matroska
Версия формата : Version 2
Размер файла : 3,79 Гбайт
Продолжительность : 53 м.
Общий поток : 10,1 Мбит/сек
Дата кодирования : UTC 2010-06-29 17:36:14
Программа кодирования : mkvmerge v3.0.0 ('Hang up your Hang-Ups') built on Dec 12 2009 15:20:35
Библиотека кодирования : libebml v0.7.9 + libmatroska v0.8.1

Видео
Идентификатор : 1
Формат : AVC
Формат/Информация : Advanced Video Codec
Профиль формата : Main@L4.1
Параметр CABAC формата : Да
Параметр ReFrames формата : 4 кадра
Идентификатор кодека : V_MPEG4/ISO/AVC
Продолжительность : 53 м.
Битрейт : 9000 Кбит/сек
Ширина : 1920 пикселей
Высота : 1080 пикселей
Соотношение сторон : 16:9
Частота кадров : 29,970 кадров/сек
Цветовое пространство : YUV
Субдискретизация насыщенности : 4:2:0
Битовая глубина : 8 бит
Тип развёртки : Прогрессивная
Бит/(Пиксели*Кадры) : 0.145
Размер потока : 3,30 Гбайт (87%)
Заголовок : The incredible journey of the butterflies
Библиотека кодирования : x264 core 88 r1462 7fcffde
Настройки программы : cabac=1 / ref=5 / deblock=1:-3:-3 / analyse=0x1:0x131 / me=umh / subme=7 / psy=1 / psy_rd=1.00:0.00 / mixed_ref=1 / me_range=16 / chroma_me=1 / trellis=2 / 8x8dct=0 / cqm=0 / deadzone=21,11 / fast_pskip=0 / chroma_qp_offset=-2 / threads=3 / sliced_threads=0 / nr=0 / decimate=1 / mbaff=0 / constrained_intra=0 / bframes=10 / b_pyramid=1 / b_adapt=2 / b_bias=0 / direct=3 / wpredb=1 / wpredp=2 / keyint=250 / keyint_min=25 / scenecut=40 / intra_refresh=0 / rc_lookahead=40 / rc=2pass / mbtree=1 / bitrate=9000 / ratetol=1.0 / qcomp=0.60 / qpmin=10 / qpmax=51 / qpstep=4 / cplxblur=20.0 / qblur=0.5 / vbv_maxrate=50000 / vbv_bufsize=50000 / ip_ratio=1.40 / aq=1:1.00
Язык : Russian
Default : Нет
Forced : Нет

Аудио #1
Идентификатор : 2
Формат : AC-3
Формат/Информация : Audio Coding 3
Расширение режима : CM (complete main)
Параметр Endianness формата : Big
Идентификатор кодека : A_AC3
Продолжительность : 53 м.
Вид битрейта : Постоянный
Битрейт : 640 Кбит/сек
Каналы : 6 каналов
Расположение каналов : Front: L C R, Side: L R, LFE
Частота : 48,0 КГц
Битовая глубина : 16 бит
Метод сжатия : С потерями
Размер потока : 246 Мбайт (6%)
Заголовок : English
Язык : English
Default : Нет
Forced : Нет

Аудио #2
Идентификатор : 3
Формат : AC-3
Формат/Информация : Audio Coding 3
Расширение режима : CM (complete main)
Параметр Endianness формата : Big
Идентификатор кодека : A_AC3
Продолжительность : 53 м.
Вид битрейта : Постоянный
Битрейт : 448 Кбит/сек
Каналы : 6 каналов
Расположение каналов : Front: L C R, Side: L R, LFE
Частота : 48,0 КГц
Битовая глубина : 16 бит
Метод сжатия : С потерями
Размер потока : 172 Мбайт (4%)
Заголовок : Russian
Язык : Russian
Default : Да
Forced : Нет

Текст #1
Идентификатор : 4
Формат : UTF-8
Идентификатор кодека : S_TEXT/UTF8
Идентификатор кодека/Информация : UTF-8 Plain Text
Заголовок : English
Язык : English
Default : Нет
Forced : Нет

Текст #2
Идентификатор : 5
Формат : UTF-8
Идентификатор кодека : S_TEXT/UTF8
Идентификатор кодека/Информация : UTF-8 Plain Text
Заголовок : Russian
Язык : Russian
Default : Нет
Forced : Нет

Меню
00:00:00.000 : en:00:00:00.000
00:02:45.999 : en:00:02:45.999
00:12:23.076 : en:00:12:23.076
00:19:40.179 : en:00:19:40.179
00:29:15.087 : en:00:29:15.087
00:35:42.140 : en:00:35:42.140
00:45:19.717 : en:00:45:19.717
Скриншоты:




Пожалуйста, не уходите с раздачи - помогите докачать другим. Если понравился релиз - жмите кнопку "Спасибо"! :приветствую:

Время раздачи: 24 / 7

"PBS. Невероятное путешествие бабочек / The Incredible Journey of the Butterflies" на NoNaMe Club
[NNM-Club.ru]_The.Incredible.Journey.of.the.Butterflies.BDRip.1080p.mkv.torrent
 Торрент: Бронзовая раздача  Зарегистрирован
 
Зарегистрируйтесь и скачайте торрент!
19,1 KB

 Зарегистрирован:   09 Май 2013 01:22:14
 Размер:   3,79 GB  (
 Рейтинг:   4,7 (Голосов: 25)
 Поблагодарили:   86
 Проверка:   Оформление проверено модератором 09 Май 2013 01:25:03
Как cкачать  ·  Как раздать  ·  Правильно оформить  ·  Поднять ратио!  
lo111
Стаж: 7 лет 4 мес.
Сообщений: 103
Ratio: 121,283
Раздал: 8,125 TB
Поблагодарили: 62
100%
russia.gif
Спасибо за раздачу. Великолепный фильм.
mr_bird
Стаж: 9 лет 3 мес.
Сообщений: 77
Ratio: 10,912
100%
russia.gif
Большое спасибо
Показать сообщения:   
Начать новую тему   Ответить на тему    Торрент-трекер NNM-Club -> Зарубежные TV-бренды -> PBS Часовой пояс: GMT + 3
Страница 1 из 1