Классический форум-трекер
canvas not supported
Нас вместе: 4 079 123

Москва слезам не верит (1979) BDRip [576p] iPad


 
 
RSS
Начать новую тему   Ответить на тему    Торрент-трекер NNM-Club -> Аудио и Видео -> Отечественное видео для устройств Apple
Автор Сообщение
shax87 ®
RG Apple
 
Стаж: 8 лет 6 мес.
Сообщений: 215
Ratio: 445,815
Раздал: 25,15 TB
Поблагодарили: 17288
100%
Откуда: Санкт-Петербург
russia.gif
Москва слезам не верит (1979) BDRip [576p] iPad
Название: Москва слезам не верит
Год: 1979
Страна: СССР
Жанр: драма, мелодрама, комедия

Продолжительность: 02:28:17
Аудиодорожка: русская
Субтитры: нет
Навигация по главам: есть

Режиссёр: Владимир Меньшов
Сценарий: Валентин Черных
В ролях: Вера Алентова, Ирина Муравьёва, Алексей Баталов, Раиса Рязанова, Александр Фатюшин, Борис Сморчков, Виктор Уральский, Валентина Ушакова, Юрий Васильев, Евгения Ханаева

Описание: Москва пятидесятых годов. Три молодые провинциалки приезжают в Москву в поисках того, что ищут люди во всех столицах мира — любви, счастья и достатка. Их судьбы складываются именно так, как предполагает характер каждой из девушек.
Антонина выходит замуж, растит детей, любит мужа. Людмиле Москва представляется лотереей, в которой она должна выиграть свое особенное счастье. Катерина же — отчаянно влюбляется, но избранник ее оставляет. Однако она не опускает руки, в одиночку растит дочь и к тому же успевает сделать блестящую карьеру. В сорок лет судьба дарит ей встречу с прекрасным человеком и настоящую любовь…



Качество видео: BDRip
Исходник: Blu-ray disc
Формат: MP4 (контейнер m4v)
Видео: AVC, 768x576 (4:3) at 23.976 fps, AVC at 2352 kbps avg, 0.222 bit/pixel
Аудио: 48 kHz, AAC, 2ch, 128 Kbps | Русский | Оригинальный
Общее
Полное имя : F:\Downloads\Moskva slezam ne verit.1979.BDRip.iPad.m4v
Формат : MPEG-4
Профиль формата : Base Media / Version 2
Идентификатор кодека : mp42
Размер файла : 2,58 Гбайт
Продолжительность : 2 ч. 28 м.
Режим общего битрейта : Переменный
Общий поток : 2491 Кбит/сек
Название фильма : Москва слезам не верит
Исполнитель : Владимир Меньшов
Жанр : Drama
Дата записи : UTC 1980-02-11 07:00:00
Дата кодирования : UTC 2013-09-10 19:58:37
Дата пометки : UTC 2013-09-11 19:40:30
Программа кодирования : HandBrake 0.9.8 2012071700

Видео
Идентификатор : 1
Формат : AVC
Формат/Информация : Advanced Video Codec
Профиль формата : High@L3.1
Параметр CABAC формата : Да
Параметр ReFrames формата : 8 кадров
Идентификатор кодека : avc1
Идентификатор кодека/Информация : Advanced Video Coding
Продолжительность : 2 ч. 28 м.
Вид битрейта : Переменный
Битрейт : 2352 Кбит/сек
Ширина : 768 пикселей
Высота : 576 пикселей
Соотношение сторон : 4:3
Режим частоты кадров : Переменный
Частота кадров : 23,976 кадра/сек
Минимальная частота кадров : 23,974 кадра/сек
Максимальная частота кадров : 90000,000 кадров/сек
Цветовое пространство : YUV
Субдискретизация насыщенности : 4:2:0
Битовая глубина : 8 бит
Тип развёртки : Прогрессивная
Бит/(Пиксели*Кадры) : 0.222
Размер потока : 2,44 Гбайт (94%)
Библиотека кодирования : x264 core 120
Настройки программы : cabac=1 / ref=9 / deblock=1:-1:-1 / analyse=0x3:0x133 / me=umh / subme=9 / psy=1 / psy_rd=1.00:0.15 / mixed_ref=1 / me_range=32 / chroma_me=1 / trellis=2 / 8x8dct=1 / cqm=0 / deadzone=21,11 / fast_pskip=1 / chroma_qp_offset=-3 / threads=6 / sliced_threads=0 / nr=0 / decimate=1 / interlaced=0 / bluray_compat=0 / constrained_intra=0 / bframes=9 / b_pyramid=1 / b_adapt=2 / b_bias=0 / direct=1 / weightb=1 / open_gop=0 / weightp=2 / keyint=240 / keyint_min=24 / scenecut=40 / intra_refresh=0 / rc_lookahead=40 / rc=crf / mbtree=1 / crf=18.0 / qcomp=0.60 / qpmin=3 / qpmax=69 / qpstep=4 / ip_ratio=1.40 / aq=1:0.90
Дата кодирования : UTC 2013-09-10 19:58:37
Дата пометки : UTC 2013-09-11 00:30:37
Основные цвета : BT.709
Характеристики трансфера : BT.709
Коэффициенты матрицы : BT.709

Аудио
Идентификатор : 2
Формат : AAC
Формат/Информация : Advanced Audio Codec
Профиль формата : LC
Идентификатор кодека : 40
Продолжительность : 2 ч. 28 м.
Вид битрейта : Переменный
Битрейт : 128 Кбит/сек
Максимальный битрейт : 284 Кбит/сек
Каналы : 2 канала
Расположение каналов : Front: L R
Частота : 48,0 КГц
Метод сжатия : С потерями
Задержка видео : 83 мс.
Размер потока : 136 Мбайт (5%)
Язык : Russian
Дата кодирования : UTC 2013-09-10 19:58:37
Дата пометки : UTC 2013-09-11 00:30:33

Текст
Идентификатор : 4
Формат : Apple text
Идентификатор кодека : text
Продолжительность : 2 ч. 28 м.
Вид битрейта : Переменный
Битрейт : 1 бит/сек
Задержка видео : 83 мс.
Размер потока : 759 байт (0%)
Дата кодирования : UTC 2013-09-11 19:40:30
Дата пометки : UTC 2013-09-11 19:40:30
x264 [info]: frame I:1261 Avg QP:15.06 size:102644
x264 [info]: frame P:41776 Avg QP:18.39 size: 35066
x264 [info]: frame B:170291 Avg QP:21.89 size: 6002
x264 [info]: consecutive B-frames: 0.8% 1.0% 3.5% 16.9% 20.2% 51.4% 5.2% 0.5% 0.3% 0.0%
x264 [info]: mb I I16..4: 8.3% 62.6% 29.1%
x264 [info]: mb P I16..4: 0.2% 6.1% 1.3% P16..4: 35.6% 28.3% 21.4% 3.9% 1.6% skip: 1.5%
x264 [info]: mb B I16..4: 0.0% 0.4% 0.1% B16..8: 39.9% 8.6% 2.9% direct: 6.0% skip:42.1% L0:36.3% L1:47.5% BI:16.2%
x264 [info]: 8x8 transform intra:76.7% inter:51.9%
x264 [info]: coded y,uvDC,uvAC intra: 98.4% 85.9% 63.8% inter: 30.0% 21.4% 3.8%
x264 [info]: i16 v,h,dc,p: 26% 6% 31% 36%
x264 [info]: i8 v,h,dc,ddl,ddr,vr,hd,vl,hu: 15% 9% 8% 8% 13% 12% 12% 11% 12%
x264 [info]: i4 v,h,dc,ddl,ddr,vr,hd,vl,hu: 14% 9% 4% 8% 14% 14% 13% 12% 12%
x264 [info]: i8c dc,h,v,p: 41% 21% 24% 14%
x264 [info]: Weighted P-Frames: Y:9.8% UV:1.8%
x264 [info]: ref P L0: 50.5% 16.7% 12.5% 6.2% 4.7% 3.8% 3.2% 2.2% 0.3% 0.0%
x264 [info]: ref B L0: 91.8% 3.8% 1.9% 0.9% 0.7% 0.6% 0.4%
x264 [info]: ref B L1: 97.3% 2.7%
x264 [info]: kb/s:2352.54
Media Type: Movie
Sort Name: Москва слезам не верит
XID: Apple:vendor_id:1980-46708
Content ID: 46708
ScreenWriters: Валентин Черных
Producers: Виталий Богуславский
Director: Владимир Меньшов
Cast: Вера Алентова, Ирина Муравьёва, Алексей Баталов, Раиса Рязанова, Александр Фатюшин, Борис Сморчков, Виктор Уральский, Валентина Ушакова, Юрий Васильев, Евгения Ханаева
Long Description: Москва пятидесятых годов. Три молодые провинциалки приезжают в Москву в поисках того, что ищут люди во всех столицах мира — любви, счастья и достатка. Их судьбы складываются именно так, как предполагает характер каждой из девушек.
Антонина выходит замуж, растит детей, любит мужа. Людмиле Москва представляется лотереей, в которой она должна выиграть свое особенное счастье. Катерина же — отчаянно влюбляется, но избранник ее оставляет. Однако она не опускает руки, в одиночку растит дочь и к тому же успевает сделать блестящую карьеру. В сорок лет судьба дарит ей встречу с прекрасным человеком и настоящую любовь…
Description: Москва пятидесятых годов. Три молодые провинциалки приезжают в Москву в поисках того, что ищут люди во всех столицах мира — любви, счастья и достатка. Их судьбы складываются именно так, как предполагает характер каждой из девушек.
Release Date: 1980-02-11T07:00:00Z
Genre: Drama
Artist: Владимир Меньшов
Name: Москва слезам не верит
Скриншоты:

Время раздачи: 24/7
[NNM-Club.me]_Moskva slezam ne verit.1979.BDRip.iPad.m4v.torrent
 Торрент: Платиновая раздача  Зарегистрирован
 
Скачать


Примагнититься
 Зарегистрирован:   11 Сен 2013 22:56:59
 Размер:   2,58 GB  (
 Рейтинг:   4,9 (Голосов: 57)
 Поблагодарили:   176
 Проверка:   Оформление проверено модератором 12 Сен 2013 08:43:42
Как cкачать  ·  Как раздать  ·  Правильно оформить  ·  Поднять ратио!  
Показать сообщения:   
Начать новую тему   Ответить на тему    Торрент-трекер NNM-Club -> Аудио и Видео -> Отечественное видео для устройств Apple Часовой пояс: GMT + 3
Страница 1 из 1