Классический форум-трекер
canvas not supported
Нас вместе: 4 079 401

Интерны (5 сезон: серии 81-100 из 100) (2010-2011) 2хDVD9


 
 
RSS
Начать новую тему   Ответить на тему    Торрент-трекер NNM-Club -> Отечественные сериалы -> Интерны
Автор Сообщение
basil585 ®
Стаж: 7 лет 7 мес.
Сообщений: 12
Ratio: 102,313
Поблагодарили: 1348
100%
Интерны (5 Сезон: серии 81-100 из 100) (2010-2011) 2хDVD9
Русское название: Интерны
Год выпуска: 2010-2011
Жанр: Комедия, Семейный, Ситком



Режиссер: Максим Пежемский, Заур Болотаев, Милан Килибарда, Евгений Невский, Радда Новикова
Актеры: Иван Охлобыстин, Кристина Асмус, Илья Глинников, Александр Ильин мл., Дмитрий Шаракоис, Вадим Демчог, Светлана Камынина, Светлана Пермякова, Один Ланд Байрон, Дмитрий Шаракоис, Татьяна Лянник, Мария Пирогова, Лидия Арефьева, Максим Артамонов, Михаил Павлик, Татьяна Мухина, Елена Суркова, Екатерина Радченко, Любовь Кондрашова, Александр Туманов, Ольга Алисина, Лариса Крупина, Михаил Петухов, Елена Помазан

Описание фильма:
Жизнь обычной многопрофильной больницы - сплошная рутина. Ненормированный рабочий день, тяжелая, неблагодарная работа, а также инопланетяне, электрики, спивающийся венеролог, озабоченная медсестра, больной-эксгибиционист, ручная крыса, четыре интерна, которые все время расстраивают своего руководителя... Как Иван Охлобыстин в лице доктора Быкова справится со всей этой суетой?

Продолжительность: 2х~04:08:00
Качество видео: DVD9
Количество серий: 20х~00:25
Видеокодек: MPEG-2
Битрейт видео:~ 4388.06 kbps avg
Размер кадра: 720 x 576 (PAL 4:3)
Аудиокодек: MP2
Битрейт аудио: 48.0 kHz, MPEG-1 Audio Layer 2, 2 ch ~192 Kbps avg
Meню озвученное, статичное, с навигацией по эпизодам
Формат : MPEG-PS
Размер файла : 1024 Мбайт
Режим общего битрейта : Переменный

Видео
Идентификатор : 224 (0xE0)
Формат : MPEG Video
Версия формата : Version 2
Профиль формата : Main@Main
Параметр BVOP формата : Да
Параметр матрицы формата : Выборочная
Продолжительность : 7 м. 44 с.
Вид битрейта : Переменный
Битрейт : 4416 Кбит/сек
Максимальный битрейт : 9000 Кбит/сек
Ширина : 720 пикселей
Высота : 576 пикселей
Соотношение сторон : 4:3
Частота кадров : 25,000 кадров/сек
Стандарт вещания : PAL
Цветовое пространство : YUV
Субдискретизация насыщенности : 4:2:0
Битовая глубина : 8 бит
Тип развёртки : Чересстрочная
Порядок развёртки : Верхнее поле первое
Метод сжатия : С потерями
Бит/(Пиксели*Кадры) : 1.729
Размер потока : 993 Мбайт (97%)

Аудио
Идентификатор : 189 (0xBD)-128 (0x80)
Формат : AC-3
Формат/Информация : Audio Coding 3
Расширение режима : CM (complete main)
Режим смешивания : DVD-Video
Продолжительность : 7 м. 44 с.
Вид битрейта : Постоянный
Битрейт : 192 Кбит/сек
Каналы : 2 канала
Расположение каналов : Front: L R
Частота : 48,0 КГц
Битовая глубина : 16 бит
Метод сжатия : С потерями
Размер потока : 10,6 Мбайт (1%)

Меню
*******************
Title: Новый том
Size: 7.61 Gb ( 7 975 304,00 KBytes ) - DVD-9
Enabled regions: 1, 2, 3, 4, 5, 6, 7, 8

VTS_01 :
Play Length: 04:08:03
Video: PAL 4:3 (720x576) VBR
Audio:
Russian (Dolby AC3, 2 ch)
Скриншоты:


Время раздачи: с 12:00 до 24:00
[NNM-Club.ru]_Internyi 5 sezon.torrent
 Торрент: Платиновая раздача  Зарегистрирован
 
Скачать


 Зарегистрирован:   18 Ноя 2012 20:52:14
 Размер:   15 GB  (
 Рейтинг:   4,2 (Голосов: 62)
 Поблагодарили:   155
 Проверка:   Оформление проверено модератором 23 Ноя 2012 13:16:37
Как cкачать  ·  Как раздать  ·  Правильно оформить  ·  Поднять ратио!  
GerdoSS
Стаж: 8 лет 11 мес.
Сообщений: 68
Ratio: 10,556
100%
Откуда: Украина Чернигов
ukraine.gif
На раздаче вообще есть кто???

Добавлено спустя 2 минуты 58 секунд:

скорости видимо нет и не будет...

_________________
Надо всегда стремиться к правде. Даже если она убьет тебя, она многому научит тебя перед этим.
modi3000
Стаж: 11 лет 9 мес.
Сообщений: 76
Ratio: 8,521
100%
russia.gif
Раздающий! Скорость раздачи просто космическая! Так и надо держать!
basil585 ®
Стаж: 7 лет 7 мес.
Сообщений: 12
Ratio: 102,313
Поблагодарили: 1348
100%
Имейте терпение у меня Авангард ! Для Авангарда это космическая скорость .
modi3000
Стаж: 11 лет 9 мес.
Сообщений: 76
Ratio: 8,521
100%
russia.gif
Прошу Вашего прощения! Сочувствую! Но! Прекрасно понимая что скорость...... как же можно было решить заливать такой размер?
basil585 ®
Стаж: 7 лет 7 мес.
Сообщений: 12
Ratio: 102,313
Поблагодарили: 1348
100%
Имейте немного терпения , а тот кто перекачал не уходите с раздачи а помогите ...
basil585 ®
Стаж: 7 лет 7 мес.
Сообщений: 12
Ratio: 102,313
Поблагодарили: 1348
100%
Зачем ставить такую низкую оценку и при этом скачивать фильм ?
modi3000
Стаж: 11 лет 9 мес.
Сообщений: 76
Ratio: 8,521
100%
russia.gif
Успокойтесь! Поставил оценку "супер"!Прекрасно понимая что скорость...... как же можно было решить заливать такой размер?
bachelor-62
Стаж: 9 лет 1 мес.
Сообщений: 14
Ratio: 14,459
100%
russia.gif
Нормальную полиграфию (600 dpi) нельзя выложить?
Показать сообщения:   
Начать новую тему   Ответить на тему    Торрент-трекер NNM-Club -> Отечественные сериалы -> Интерны Часовой пояс: GMT + 3
Страница 1 из 1