Классический форум-трекер
canvas not supported
Нас вместе: 4 079 366

Первая любовь / Primer amor (1992) TVRip (серии 1-165 из 165)


 
 
RSS
Начать новую тему   Ответить на тему    Торрент-трекер NNM-Club -> Зарубежные сериалы -> Латиноамериканские сериалы
Автор Сообщение
goloborodov ®
Стаж: 9 лет 1 мес.
Сообщений: 57
Ratio: 38,252
Раздал: 1,359 TB
Поблагодарили: 2656
100%
Откуда: Commonwealth of Australia
australia.gif
Первая любовь / Primer amor (1992) TVRip (серии 1-165 из 165)
Год выпуска: 1992
Жанр: Мелодрама, Драма

Описание фильма:
Мария Инес - дочь Клары Эухении и одного женатого мужчины, который бросил ее, когда она была беременна. В 12 лет Мария Инес со своей матерью едет в Испанию повидать своих бабушку и дедушку. Там она влюбляется в Мартина и становится подругой его сестры. На прощание молодые люди меняются амулетами с первого причастия. Проходит десять лет, они снова встречаются, но у Мартина уже есть невеста. Увидев друг друга, Мария Инес и Мартин понимают, что любят друг друга по-прежнему и бросаются друг другу в объятия. Мария Инес, спустя какое-то время обнаруживает, что беременна. История ее матери повторяется. Она возвращается в Буэнос-Айрес, а Мартин бросается ее искать и не находит. Поэтому он возвращается к своей невесте Росане. Спустя несколько лет, Мария Инес и Мартин встречаются, но стена разочарований и лжи очень долгое время мешает им понять, что они по-прежнему любят друг друга

Режиссер: Альфредо Галиньянес, Гаита Арагона
Актеры: Гресия Кольменарес (...Мария Инес), Габриель Коррадо (...Мартин Эстрада), Милена Монтес (...Росана), Хавьер Вильялва (...Армандо), Луис Луке (...Браулио), Сильвия Кутика (...Мария дель Кармен, сестра Мартина), Фернандо Эредиа (...Рауль, отец Марии Инес и Исабель), Эльза Беренгер, Хуго Касианси (...Хуан Карлос, муж Исабель), Хильда Лусек (...Клара Эухения, мать Марии Инес), Марта Серайн, Александра Дарин (...Исабель, сводная сестра Марии Инес), Хосе Мария Лопес, Альфредо Семма (...Хосе Мануэль, отец Мартина)

Продолжительность: 165 х ~ 00:44:00
Качество видео: TVRip
Перевод (кроме 165 серии): Многоголосый закадровый

Последняя 165 серия не была транслирована на русском канале и записана с итальянского телеканала.
Язык 165 серии: Испанский
Язык субтитров 165 серии: Русский
Вид субтитров: Отдельным файлом
Дата мировой премьеры: 01.09.1993

Видеокодек: DivX 5
Битрейт видео: ~1000 kbps
Размер кадра: 640x480
Аудиокодек: MPEG Audio
Битрейт аудио: 128 kbps
Код: выделить все
 Общее
Полное имя                               : F:\Фильмы\Первая любовь\001.avi
Формат                                   : AVI
Формат/Информация                        : Audio Video Interleave
Размер файла                             : 364 Мбайт
Продолжительность                        : 44 м.
Общий поток                              : 1139 Кбит/сек
Библиотека кодирования                   : VirtualDub-MPEG2 build 24600/release

 Видео
Идентификатор                            : 0
Формат                                   : MPEG-4 Visual
Параметр BVOP формата                    : 1
Параметр QPel формата                    : Нет
Параметр GMC формата                     : Без точки перехода
Параметр матрицы формата                 : Default (H.263)
Режим смешивания                         : Сжатый битовый поток
Идентификатор кодека                     : DX50
Идентификатор кодека/Подсказка           : DivX 5
Продолжительность                        : 44 м.
Битрейт                                  : 1001 Кбит/сек
Ширина                                   : 640 пикселей
Высота                                   : 480 пикселей
Соотношение сторон                       : 4:3
Частота кадров                           : 25,000 кадров/сек
Цветовое пространство                    : YUV
Субдискретизация насыщенности            : 4:2:0
Битовая глубина                          : 8 бит
Тип развёртки                            : Прогрессивная
Метод сжатия                             : С потерями
Бит/(Пиксели*Кадры)                      : 0.130
Размер потока                            : 320 Мбайт (88%)
Библиотека кодирования                   : DivX 6.8.5 (UTC 2009-08-20)

 Аудио
Идентификатор                            : 1
Формат                                   : MPEG Audio
Версия формата                           : Version 1
Профиль формата                          : Layer 3
Режим                                    : Joint stereo
Расширение режима                        : MS Stereo
Идентификатор кодека                     : 55
Идентификатор кодека/Подсказка           : MP3
Продолжительность                        : 44 м.
Вид битрейта                             : Постоянный
Битрейт                                  : 128 Кбит/сек
Каналы                                   : 2 канала
Частота                                  : 48,0 КГц
Метод сжатия                             : С потерями
Размер потока                            : 40,9 Мбайт (11%)
Выравнивание                             : Разделение по промежуткам
Продолжительность промежутка             : 40  мс. (1,00 видеокадр)
Время предзагрузки промежутка            : 500  мс.
Скриншоты:


Все релизы сериала "Первая любовь"

Время раздачи: c 5:00 до 23:00 с перерывами в 3-4 часа
[NNM-Club.me]_Pervaya lyubov (1-165).torrent
 Торрент: Платиновая раздача  Зарегистрирован
 
Скачать


Примагнититься
 Зарегистрирован:   20 Окт 2013 11:09:19
 Размер:   55 GB  (
 Рейтинг:    (Голосов: 8)
 Поблагодарили:   27
 Проверка:   Оформление проверено модератором 21 Окт 2013 21:22:29
Как cкачать  ·  Как раздать  ·  Правильно оформить  ·  Поднять ратио!  

_________________
Пожалуйста, не ленитесь, нажмите "Спасибо" =) . Если у Вас есть вопросы, просьбы либо пожелания по раздаче, напишите мне ЛС
Показать сообщения:   
Начать новую тему   Ответить на тему    Торрент-трекер NNM-Club -> Зарубежные сериалы -> Латиноамериканские сериалы Часовой пояс: GMT + 3
Страница 1 из 1