Классический форум-трекер
canvas not supported
Нас вместе: 4 078 880

Ваш счастливый ребенок (2006) DVDRip


 
 
RSS
Начать новую тему   Ответить на тему    Торрент-трекер NNM-Club -> Видео -> Обучающее Видео для родителей
Автор Сообщение
nnmclub0112 ®
Стаж: 7 лет 9 мес.
Сообщений: 3894
Ratio: 96,997
Поблагодарили: 249605
100%
Ваш счастливый ребенок (2006) DVDRip
Год выпуска: 2006
Жанр: Для родителей, Обучающий

Перевод: Одноголосый закадровый, профессиональный
Участники: Харвей Карп, Мадонна, Мишель Пфайффер и Пирс Броснан

Описание фильма:
Ваш ребенок стал старше и теперь Вам нужно научиться уговаривать его делать то, что ему совсем не нравится, например, ложиться спать днем.
В фильме "Ваш счастливый малыш" доктор Карп, профессор детской психиатрии, покажет Вам, как нужно развивать в ребенке чувство собственного достоинства, как привить ему терпение и научить уважать окружающих его детей и взрослых. Вы станете лучше понимать, как ребенок воспринимает окружающий мир, а значит, Вам будет легче с ним общаться.
Мягкий подход Харви Карпа к заботе о детях представляет собой развитие принципов, изложенных знаменитым детским доктором Бенджамином Споком. Папы и мамы должны поставить себя на место своего ребенка. Методика Карпа проверена многими родителями по всему миру. В число тех тысяч родителей, с которыми Карп делился своими профессиональными секретами, входят Мадонна, Мишель Пфайффер и Пирс Броснан.
Способствует развитию: произвольности (умения играть по правилам и выполнять инструкции), навыков общения и партнерства, общей культуры и эрудиции

Продолжительность: 00:37:35
Качество видео: DVDRip

Видеокодек: Xvid
Битрейт видео: ~1534 Кбит/сек
Размер кадра: 688x512
Аудиокодек: MP3, 2 ch
Битрейт аудио: 192 Кбит/сек
Общее
Полное имя : E:\Интересно\!!!Конкурс детский\1Этап\!Обуч видео для родителей\Ваш счастливый ребенок\Ваш счастливый ребенок (2006) DVDRip.avi
Формат : AVI
Формат/Информация : Audio Video Interleave
Размер файла : 467 Мбайт
Продолжительность : 37 м.
Общий поток : 1738 Кбит/сек
Название фильма : Vash_schastlyvy_rebenok.Title1.DVDRip
Программа кодирования : Lavf52.33.0
Формат оригинала/Имя : Vash_schastlyvy_rebenok

Видео
Идентификатор : 0
Формат : MPEG-4 Visual
Профиль формата : Simple@L3
Параметр BVOP формата : Нет
Параметр QPel формата : Нет
Параметр GMC формата : Без точки перехода
Параметр матрицы формата : Default (H.263)
Идентификатор кодека : XVID
Идентификатор кодека/Подсказка : XviD
Продолжительность : 37 м.
Битрейт : 1534 Кбит/сек
Ширина : 688 пикселей
Высота : 512 пикселей
Соотношение сторон : 4:3
Частота кадров : 25,000 кадров/сек
Цветовое пространство : YUV
Субдискретизация насыщенности : 4:2:0
Битовая глубина : 8 бит
Тип развёртки : Прогрессивная
Метод сжатия : С потерями
Бит/(Пиксели*Кадры) : 0.174
Размер потока : 412 Мбайт (88%)
Библиотека кодирования : XviD 1.2.1 (UTC 2008-12-04)

Аудио
Идентификатор : 1
Формат : MPEG Audio
Версия формата : Version 1
Профиль формата : Layer 3
Режим : Joint stereo
Расширение режима : MS Stereo
Идентификатор кодека : 55
Идентификатор кодека/Подсказка : MP3
Продолжительность : 37 м.
Вид битрейта : Постоянный
Битрейт : 192 Кбит/сек
Каналы : 2 канала
Частота : 48,0 КГц
Метод сжатия : С потерями
Размер потока : 51,6 Мбайт (11%)
Выравнивание : Соединение по промежуткам
Продолжительность промежутка : 24 мс. (0,60 видеокадр)
Время предзагрузки промежутка : 24 мс.
Библиотека кодирования : LAME3.98.2
Скриншоты:


Время раздачи: С 18:00 до 23:00
[NNM-Club.me]_Vash schastlivyiy rebenok (2006) DVDRip.avi.torrent
 Торрент: Платиновая раздача  Зарегистрирован
 
Скачать


Примагнититься
 Зарегистрирован:   21 Ноя 2013 15:04:49
 Размер:   467 MB  (
 Рейтинг:   4,6 (Голосов: 13)
 Поблагодарили:   67
 Проверка:   Оформление проверено модератором 21 Ноя 2013 21:47:02
Как cкачать  ·  Как раздать  ·  Правильно оформить  ·  Поднять ратио!  
Загрузка...
Показать сообщения:   
Начать новую тему   Ответить на тему    Торрент-трекер NNM-Club -> Видео -> Обучающее Видео для родителей Часовой пояс: GMT + 3
Страница 1 из 1