Классический форум-трекер
canvas not supported
Нас вместе: 4 077 004

АБВГДейка в цирке (1984) VHSRip


 
 
RSS
Начать новую тему   Ответить на тему    Торрент-трекер NNM-Club -> Видео -> Обучающее Видео для родителей
Автор Сообщение
nnmclub0112 ®
Стаж: 7 лет 7 мес.
Сообщений: 3888
Ratio: 98,616
Поблагодарили: 249031
100%
АБВГДейка в цирке (1984) VHSRip
Год выпуска: 1984
Жанр: Детский, Развивающий
Участники: Юрий Никулин, Андрей Николаев, Виталий Довгань, Елена Казаринова, Константин Степанов, Евгений Балашов и другие артисты Союзгосцирка и московских театров...

Описание фильма:
Передача АБВГДейка в цирке

Продолжительность: 00:49:10
Качество видео: VHSRip

Видеокодек: DivX 5
Битрейт видео: ~2141 Кбит/сек
Размер кадра: 512x384
Аудиокодек: AC3 2.0
Битрейт аудио: 128 Кбит/сек
Общее
Полное имя : E:\Интересно\!!!Конкурс детский\1Этап\!Развивающее Видео для детей\АБВГДейка\АБВГДейка в цирке\АБВГДейка в цирке (1984) VHSRip.avi
Формат : AVI
Формат/Информация : Audio Video Interleave
Размер файла : 800 Мбайт
Продолжительность : 49 м.
Общий поток : 2276 Кбит/сек
Программа кодирования : VirtualDubMod 1.5.4.1 (build 2178/release)
Библиотека кодирования : VirtualDubMod build 2178/release

Видео
Идентификатор : 0
Формат : MPEG-4 Visual
Параметр BVOP формата : 1
Параметр QPel формата : Нет
Параметр GMC формата : Без точки перехода
Параметр матрицы формата : Default (H.263)
Режим смешивания : Сжатый битовый поток
Идентификатор кодека : DX50
Идентификатор кодека/Подсказка : DivX 5
Продолжительность : 49 м.
Битрейт : 2141 Кбит/сек
Ширина : 512 пикселей
Высота : 384 пикселя
Соотношение сторон : 4:3
Частота кадров : 25,000 кадров/сек
Цветовое пространство : YUV
Субдискретизация насыщенности : 4:2:0
Битовая глубина : 8 бит
Тип развёртки : Прогрессивная
Метод сжатия : С потерями
Бит/(Пиксели*Кадры) : 0.436
Размер потока : 753 Мбайт (94%)
Библиотека кодирования : DivX 6.8.3-6.8.4 (UTC 2008-06-07)

Аудио
Идентификатор : 1
Формат : AC-3
Формат/Информация : Audio Coding 3
Расширение режима : CM (complete main)
Параметр Endianness формата : Big
Идентификатор кодека : 2000
Продолжительность : 49 м.
Вид битрейта : Постоянный
Битрейт : 128 Кбит/сек
Каналы : 2 канала
Расположение каналов : Front: L R
Частота : 48,0 КГц
Битовая глубина : 16 бит
Метод сжатия : С потерями
Размер потока : 45,0 Мбайт (6%)
Выравнивание : Разделение по промежуткам
Продолжительность промежутка : 96 мс. (2,40 видеокадра)
Время предзагрузки промежутка : 96 мс.
Скриншоты:




Все релизы "АБВГДейка" на NNM-CLUB
Время раздачи: С 18:00 до 23:00
[NNM-Club.me]_ABVGDeyka v tsirke (1984) VHSRip.avi.torrent
 Торрент: Платиновая раздача  Зарегистрирован
 
Скачать


Примагнититься
 Зарегистрирован:   22 Ноя 2013 00:02:53
 Размер:   800 MB  (
 Рейтинг:   4,7 (Голосов: 18)
 Поблагодарили:   54
 Проверка:   Оформление проверено модератором 22 Ноя 2013 17:56:16
Как cкачать  ·  Как раздать  ·  Правильно оформить  ·  Поднять ратио!  
kolyakotov
Стаж: 9 лет 3 мес.
Сообщений: 489
Ratio: 17,759
0.1%
russia.gif
да это ж клепа с ириской. народ вот так да . качаем и смотрим
Показать сообщения:   
Начать новую тему   Ответить на тему    Торрент-трекер NNM-Club -> Видео -> Обучающее Видео для родителей Часовой пояс: GMT + 3
Страница 1 из 1