Классический форум-трекер
canvas not supported
Нас вместе: 4 077 069

Маша больше не лентяйка. Сборник мультфильмов (1967-1984) DVD5 [Маша больше не лентяйка, Песенка мышонка, Старая игрушка, Просто так, Мышонок Пик, Тигрёнок на подсолнухе]


 
 
RSS
Начать новую тему   Ответить на тему    Торрент-трекер NNM-Club -> Мультфильмы -> Отечественные Мультфильмы (HD, UHD, UHD-LQ, DVD, Сборники)
Автор Сообщение
denver7979 ®
Зам. Куратора Детского.
Модератор Видео.
RG Всё лучшее - детям!
 
Стаж: 8 лет 8 мес.
Сообщений: 7568
Ratio: 491,242
Раздал: 33,9 TB
Поблагодарили: 308886
100%
Откуда: Земля
ussr.gif
Маша больше не лентяйка. Сборник мультфильмов / Маша больше не лентяйка. Сборник мультфильмов (1967-1984) DVD5
Русское название: Маша больше не лентяйка. Сборник мультфильмов
Студия: Союзмультфильм
Страна: СССР
Год выпуска: 1967-1984
Жанр: Детский, Рисованная анимация

Описание:
Замечательные старые советские мультфильмы с характерными персонажами, чудесной музыкой, добрым юмором! Для детей и родителей!

1. Маша больше не лентяйка. 1978 г.
2. Песенка мышонка. 1967 г.
3. Старая игрушка. 1971 г.
4. Просто так. 1976 г.
5. Мышонок Пик. 1978 г.
6. Тигрёнок на подсолнухе. 1981 г.
7. Верное средство. 1982 г.
8. Кубик и Тобик. 1984 г.

Режиссер: Л. Мильчин, Ю. Прытков, В. Самсонов, С. Аристакесова, Г. Сокольский, Л. Носырев, Ю. Прытков, В. Арбеков

Субтитры: отсутствуют
Доп. материалы: отсутствуют
Доп. информация: Лицензия "Крупный План", бюджетное издание. Производство ФГУП "Киностудия "Союзмультфильм". Без реставрации. Меню отсутствует.

Продолжительность: 01:20:00
Качество видео: DVD5

Видео: MPEG 2, 720x576 (4:3), 25.000 fps, 8 000 Kbps (0.772 bit/pixel)
Аудио: AC-3, 48.0 KHz, 1 ch, 192 Kbps, CBR
Title:
Size: 3.07 Gb ( 3 216 940 KBytes ) - DVD-5
Enabled regions: 1, 2, 3, 4, 5, 6, 7, 8
VTS_01 :
Play Length: 00:00:19+00:08:56+00:09:26+00:09:41+00:06:31+00:16:38+00:10:01+00:09:21+00:08:49
Video: PAL 4:3 (704x576) VBR
Audio:
Russian (Dolby AC3, 192 kbps)
Видео
Идентификатор : 224 (0xE0)
Формат : MPEG Video
Версия формата : Version 2
Профиль формата : Main@Main
Параметр BVOP формата : Да
Параметр матрицы формата : Выборочная
Параметр GOP формата : M=3, N=12
Продолжительность : 8 м. 42 с.
Вид битрейта : Переменный
Битрейт : 15,5 Мбит/сек
Максимальный битрейт : 8000 Кбит/сек
Ширина : 720 пикселей
Высота : 576 пикселей
Соотношение сторон : 4:3
Частота кадров : 25,000 кадров/сек
Стандарт вещания : PAL
Цветовое пространство : YUV
Субдискретизация насыщенности : 4:2:0
Битовая глубина : 8 бит
Тип развёртки : Чересстрочная
Порядок развёртки : Нижнее поле первое
Метод сжатия : С потерями
Бит/(Пиксели*Кадры) : 1.500
Размер потока : 968 Мбайт (97%)

Аудио
Идентификатор : 189 (0xBD)-128 (0x80)
Формат : AC-3
Формат/Информация : Audio Coding 3
Расширение режима : CM (complete main)
Параметр Endianness формата : Big
Режим смешивания : DVD-Video
Продолжительность : 8 м. 42 с.
Вид битрейта : Постоянный
Битрейт : 192 Кбит/сек
Каналы : 1 канал
Расположение каналов : Front: C
Частота : 48,0 КГц
Битовая глубина : 16 бит
Метод сжатия : С потерями
Задержка видео : -248 мс.
Размер потока : 12,0 Мбайт (1%)

Меню
01. Маша больше не лентяйка (1978г.)
Описаниe:
Мультипликационный фильм о том, как Маша отказалась помочь бабушке, и за это её руки и ноги отказались слушаться хозяйку. Маша не могла справиться с руками и ногами до тех пор, пока не дала слово никогда не лениться.

Продолжительность - 0:08:56



Скриншоты:

02. Песенка мышонка (1967г.)
Описаниe:
Мультипликационный фильм о мышонке-певце, который был бездельником и смеялся над чужим трудом. Однако взрослые жители леса все-таки смогли его перевоспитать.

Продолжительность - 0:09:26



Скриншоты:

03. Старая игрушка (1971г.)
Описаниe:
Мультипликационный фильм о старом игрушечном медведе, который ушел из дома, почему-то думал, что его хозяйка променяла его на новую игрушку.

Продолжительность - 0:09:41



Скриншоты:

04. Просто так (1976г.)
Описаниe:
Мультипликационный фильм о том, что так легко быть счастливым самому и сделать счастливым другого - просто подарив ему подарок - просто так.

Продолжительность - 0:06:31



Скриншоты:

05. Мышонок Пик (1978г.)
Описаниe:
Мультипликационный фильм о приключениях маленького мышонка, который оказался в незнакомом ему мире и проявил храбрость.

Продолжительность - 0:16:38



Скриншоты:

06. Тигрёнок на подсолнухе (1981г.)
Описаниe:
Мультипликационный фильм о том, как тигрёнок согрел зерно подсолнуха.

Продолжительность - 0:10:01



Скриншоты:

07. Верное средство (1982г.)
Описаниe:
Мультипликационный фильм о том, как однажды зимой медвежонок проснулся и никак не мог опять впасть в спячку. Тогда его друзья сыграли и спели для него чудесную колыбельную, и медвежонок заснул...

Продолжительность - 0:09:21



Скриншоты:

08. Кубик и Тобик (1984г.)
Описаниe:
Мультипликационный фильм о том, как Щенок, Козлик, Утёнок и Котёнок затеяли игру в кубики. Для малышей о верной дружбе.

Продолжительность - 0:08:49



Скриншоты:

Тысячный релиз! =)
Скриншоты:





Внимание! По техническим причинам торрент-файл перезалит 23.11.13. Поддерживающим раздачу - просьба перекачать торрент. Приношу извинения.
Время раздачи: с 11:00 до 01:00
Masha bol'she ne lentyayka DVD5_NNM-club.torrent
 Торрент: Платиновая раздача  Зарегистрирован
 
Скачать


 Зарегистрирован:   23 Ноя 2013 21:19:20
 Размер:   3,07 GB  (
 Рейтинг:   4,8 (Голосов: 66)
 Поблагодарили:   306
 Проверка:   Оформление проверено модератором 23 Ноя 2013 21:35:26
Как cкачать  ·  Как раздать  ·  Правильно оформить  ·  Поднять ратио!  

_________________
§ Основной FAQ & Все ПравилаНабор в RG NNM-Club Всё для детей, пап и мам
* Все вопросы в ☛ ЛС по вашим релизам ☣
обязательно со ссылками на темы, о которых идёт речь ☺
vkopotok
Стаж: 7 лет 6 мес.
Сообщений: 33
Ratio: 76,901
100%
russia.gif
Поздравляю с Приятным пустяком.
denver7979 ®
Зам. Куратора Детского.
Модератор Видео.
RG Всё лучшее - детям!
 
Стаж: 8 лет 8 мес.
Сообщений: 7568
Ratio: 491,242
Раздал: 33,9 TB
Поблагодарили: 308886
100%
Откуда: Земля
ussr.gif
vkopotok
Спасибо большое! :приветствую:

_________________
§ Основной FAQ & Все ПравилаНабор в RG NNM-Club Всё для детей, пап и мам
* Все вопросы в ☛ ЛС по вашим релизам ☣
обязательно со ссылками на темы, о которых идёт речь ☺
starklad
RG Всё лучшее - детям!
Реставратор Детского, Uploader 100+
 
Стаж: 7 лет 8 мес.
Сообщений: 7918
Ratio: 12K
Поблагодарили: 198415
100%
Откуда: родом из СССР
ussr.gif
Да-а немало трудов!
denver7979 Поздравляю с первой Тысячей!!!
AHTOHbl4
Стаж: 9 лет 10 мес.
Сообщений: 413
Ratio: 38,924
100%
ussr.gif
Нашим героям -УРА! =)
Вот трейлер к диску ;)
Ринат67
Стаж: 6 лет 6 мес.
Сообщений: 34
Ratio: 23,753
Поблагодарили: 119
100%
Жаль что меню нет.
Показать сообщения:   
Начать новую тему   Ответить на тему    Торрент-трекер NNM-Club -> Мультфильмы -> Отечественные Мультфильмы (HD, UHD, UHD-LQ, DVD, Сборники) Часовой пояс: GMT + 3
Страница 1 из 1